Скачать через торрент музыку Joe Henderson - Page One бесплатно без регистрации torrent

Если у вас наблюдаются проблемы со скриншотами, переходом по ссылками, скачиванием торрентов - проблемы в блокировщике рекламы AdBlock. #хорошегоДня!


Статистика раздачи
Размер:  287 MB   |    Зарегистрирован:  5 лет 8 месяцев   |    .torrent скачан:  46 раз   |   
Раздают:  1  
   
Загрузка...
 
Автор Сообщение

Umakiro

avatar Umakiro


Joe Henderson - Page One (RVG Edition)

Лейбл: Blue Note
Жанр: Jazz
Год выпуска: 1963
Формат: FLAC (tracks)
Битрейт аудио: lossless
Продолжительность: 42:14 min

Трэклист:

01 - Blue Bossa (Kenny Dorham)
02 - Le Mesha (Kenny Dorham)
03 - Homestretch (Joe Henderson)
04 - Recorda Me (Joe Henderson)
05 - Jinrikisha (Joe Henderson)
06 - Out of the night (Joe Henderson)

Состав:

Joe Henderson (tenor saxophone)
Kenny Dorham (trumpet)
McCoy Tyner (piano)
Butch Warren (bass)
Pete La Roca (drums)

Доп. информация: Дебютный альбом Joe Henderson'а как лидера группы. В то же время, самый знаменитый его альбом. 5 звезд в соответствии с allmusic guide. Записан 3 июня 1963 года, оцифрован в 1998 году Rudi van Gelder. Rip не мой, взят из сети, вердикт audiochecker v1.2: все файлы CDDA с вероятностью 99 или 100%
EAC extraction logfile from 24. June 2005, 20:16 for CD
Joe Henderson / Page One

Used drive : PLEXTOR CD-R PX-W4824A Adapter: 1 ID: 0
Read mode : Secure with NO C2, accurate stream, disable cache
Read offset correction : 98
Overread into Lead-In and Lead-Out : Yes

Used output format : C:\Programme\FLAC\flac.exe (User Defined Encoder)
320 kBit/s
Additional command line options : -8 -V -T "artist=%a" -T "title=%t" -T "album=%g" -T "date=%y" -T "tracknumber=%n" -T "genre=%m" -T "comment=Blue Note Records RVG 7243 4 98795 2 2" %s

Other options :
Fill up missing offset samples with silence : Yes
Delete leading and trailing silent blocks : No
Installed external ASPI interface

Track 1
Filename C:\Sharing_Geplant\Joe Henderson - Page One (1963) [FLAC] {Blue Note, RVG, 1999}\01 - Blue Bossa.wav

Pre-gap length 0:00:02.00

Peak level 97.9 %
Track quality 99.9 %
Test CRC 66E6B992
Copy CRC 66E6B992
Copy OK

Track 2
Filename C:\Sharing_Geplant\Joe Henderson - Page One (1963) [FLAC] {Blue Note, RVG, 1999}\02 - La Mesha.wav

Pre-gap length 0:00:03.38

Peak level 97.9 %
Track quality 100.0 %
Test CRC 17E9736F
Copy CRC 17E9736F
Copy OK

Track 3
Filename C:\Sharing_Geplant\Joe Henderson - Page One (1963) [FLAC] {Blue Note, RVG, 1999}\03 - Homestretch.wav

Pre-gap length 0:00:03.89

Peak level 97.9 %
Track quality 100.0 %
Test CRC 1110B545
Copy CRC 1110B545
Copy OK

Track 4
Filename C:\Sharing_Geplant\Joe Henderson - Page One (1963) [FLAC] {Blue Note, RVG, 1999}\04 - Recorda Me.wav

Pre-gap length 0:00:04.18

Peak level 97.9 %
Track quality 100.0 %
Test CRC FF9C35F7
Copy CRC FF9C35F7
Copy OK

Track 5
Filename C:\Sharing_Geplant\Joe Henderson - Page One (1963) [FLAC] {Blue Note, RVG, 1999}\05 - Jinrikisha.wav

Pre-gap length 0:00:03.21

Peak level 97.9 %
Track quality 100.0 %
Test CRC 9D4EC224
Copy CRC 9D4EC224
Copy OK

Track 6
Filename C:\Sharing_Geplant\Joe Henderson - Page One (1963) [FLAC] {Blue Note, RVG, 1999}\06 - Out Of The Night.wav

Pre-gap length 0:00:03.36

Peak level 97.9 %
Track quality 99.9 %
Test CRC B408CEC8
Copy CRC B408CEC8
Copy OK

No errors occured

End of status report


Трекер:  [ 28-Янв-2012 12:09 ]

  

Скачать .torrent

Размер .torrent файла 12 KB


Размер: 287 MB
Хэш (hash) релиза: 95ec1c301ea5bcabf54433ed03b372d0cb8cf29c

Еще никто не оставлял запись к записи скачать торрент Joe Henderson - Page One . Будь первым!

!Обратная связь