Скачать через торрент музыку Jimmy Smith - Plays Fats Waller - 1962 {RVG Edition} - 2008, FLAC бесплатно без регистрации torrent

Если у вас наблюдаются проблемы со скриншотами, переходом по ссылками, скачиванием торрентов - проблемы в блокировщике рекламы AdBlock. #хорошегоДня!


Статистика раздачи
Размер:  199 MB   |    Зарегистрирован:  5 лет 8 месяцев   |    .torrent скачан:  42 раза   |   
Раздают:  1  
   
Загрузка...
 
Автор Сообщение

Umakiro

avatar Umakiro


Jimmy Smith - Plays Fats Waller - 1962 {RVG Edition}

Жанр: Jazz ; Post-Bop
Год выпуска диска: 2008
Производитель диска: EU
Аудио кодек: FLAC
Тип рипа: tracks+.cue
Битрейт аудио: lossless
Продолжительность: 34:59
Источник: собственный рип, full scans incl. 300dpi

Трэклист:
1. Everybody Loves My Baby 3:44
2. Squeeze Me 5:27
3. Ain't She Sweet 3:33
4. Ain't Misbehavin' 3:40
5. Lulu's Back In Town 5:14
6. Honeysuckle Rose 6:56
7. I've Found A New Baby 6:03


Доп. информация:

The Rudy Van Gelder Edition of "Plays Fats Waller" includes an essay by Bob Blumenthal.

Personnel:
Jimmy Smith (organ); Quentin Warren (guitar); Donald Bailey (drum).

Producer: Alfred Lion.
Reissue producer: Michael Cuscuna.
Recorded at the Van Gelder Studio, Englewood Cliffs, New Jerey on January 23, 1962.
This is a MONO recording.
Originally issued in 1962 as Blue Note BST 84100.
Includes liner notes by Del Shields and Bob Blumenthal.

Digitally remastered using 24-bit technology by Rudy Van Gelder (2008, Van Gelder Studio, Englewood Cliffs, New Jersey).
This is part of the Blue Note Rudy Van Gelder Editions series.

В ответ на wish-list уважаемого strizh64
Playing piano-style single-note lines on his Hammond B-3 organ, Jimmy Smith revolutionized the use of the instrument in a jazz combo setting in the mid-'50s and early '60s, and this piano approach makes him a natural to adapt the piano tunes associated with Fats Waller to the B-3, which is what he did at the January 23, 1962, session that is represented here (Waller, by the way, was no stranger to the organ himself, and recorded several sides on the instrument). Working with guitarist Quentin Warren and his longtime drummer Donald Bailey (who worked with Smith throughout his Blue Note years), Smith brings his amazing rapid runs to Waller standards "Ain't Misbehavin'" and "Honeysuckle Rose," and gives "Ain't She Sweet" a wonderfully warm and soulful groove. It's fairly typical Smith, who careens, bolts, stutters, glides, and flashes notes all over the place at a frequently breathless pace, doing what he always does, which is being Jimmy Smith at the organ. That's what you want, and that's what you get here. ~ Steve Leggett
 
Exact Audio Copy V0.99 prebeta 5 from 4. May 2009

EAC extraction logfile from 26. May 2010, 17:44

Jimmy Smith / Plays Fats Waller

Used drive : HL-DT-STDVDRAM GH22NS40 Adapter: 2 ID: 0

Read mode : SecureUtilize accurate stream : YesDefeat audio cache : YesMake use of C2 pointers : No

Read offset correction : 667Overread into Lead-In and Lead-Out : NoFill up missing offset samples with silence : YesDelete leading and trailing silent blocks : NoNull samples used in CRC calculations : YesUsed interface : Installed external ASPI interfaceGap handling : Appended to previous track

Used output format : User Defined EncoderSelected bitrate : 768 kBit/sQuality : HighAdd ID3 tag : NoCommand line compressor : C:\Program Files (x86)\Exact Audio Copy\FLAC\FLAC.EXEAdditional command line options : -8 -V -T "ARTIST=%a" -T "TITLE=%t" -T "ALBUM=%g" -T "DATE=%y" -T "TRACKNUMBER=%n" -T "GENRE=%m" -T "COMMENT=EAC FLAC -8" %s

TOC of the extracted CD

Track | Start | Length | Start sector | End sector --------------------------------------------------------- 1 | 0:00.00 | 3:47.72 | 0 | 17096 2 | 3:47.72 | 5:31.46 | 17097 | 41967 3 | 9:19.43 | 3:37.02 | 41968 | 58244 4 | 12:56.45 | 3:44.24 | 58245 | 75068 5 | 16:40.69 | 5:16.70 | 75069 | 98838 6 | 21:57.64 | 6:57.55 | 98839 | 130168 7 | 28:55.44 | 6:03.28 | 130169 | 157421

Track 1

Filename I:\Jazz Music\RIP\01 - Everybody Loves My Baby.wav

Pre-gap length 0:00:02.00

Peak level 96.5 % Track quality 100.0 % Test CRC 338DC4F4 Copy CRC 338DC4F4 Accurately ripped (confidence 12) [B8AAE78A] Copy OK

Track 2

Filename I:\Jazz Music\RIP\02 - Squeeze Me.wav

Pre-gap length 0:00:03.89

Peak level 97.2 % Track quality 100.0 % Test CRC 13BE5C31 Copy CRC 13BE5C31 Accurately ripped (confidence 12) [7FC08545] Copy OK

Track 3

Filename I:\Jazz Music\RIP\03 - Ain't She Sweet.wav

Pre-gap length 0:00:03.88

Peak level 96.7 % Track quality 100.0 % Test CRC C7EFFD93 Copy CRC C7EFFD93 Accurately ripped (confidence 12) [1C830C7D] Copy OK

Track 4

Filename I:\Jazz Music\RIP\04 - Ain't Misbehavin'.wav

Pre-gap length 0:00:03.84

Peak level 97.9 % Track quality 100.0 % Test CRC C6E38965 Copy CRC C6E38965 Accurately ripped (confidence 12) [CD875B0F] Copy OK

Track 5

Filename I:\Jazz Music\RIP\05 - Lulu's Back In Town.wav

Pre-gap length 0:00:03.80

Peak level 89.3 % Track quality 100.0 % Test CRC B62CDDBF Copy CRC B62CDDBF Accurately ripped (confidence 12) [60B305A9] Copy OK

Track 6

Filename I:\Jazz Music\RIP\06 - Honeysuckle Rose.wav

Pre-gap length 0:00:02.34

Peak level 95.3 % Track quality 99.9 % Test CRC 23E73C38 Copy CRC 23E73C38 Accurately ripped (confidence 12) [716F2497] Copy OK

Track 7

Filename I:\Jazz Music\RIP\07 - I've Found A New Baby.wav

Pre-gap length 0:00:01.57

Peak level 96.5 % Track quality 100.0 % Test CRC D65C5B3A Copy CRC D65C5B3A Accurately ripped (confidence 11) [BB29919A] Copy OK

All tracks accurately ripped

No errors occurred

End of status report
 
REM GENRE JazzREM DATE 1962REM DISCID 54083207REM COMMENT "ExactAudioCopy v0.99pb5"PERFORMER "Jimmy Smith"TITLE "Plays Fats Waller"FILE "01 - Everybody Loves My Baby.wav" WAVE TRACK 01 AUDIO TITLE "Everybody Loves My Baby" PERFORMER "Jimmy Smith" INDEX 01 00:00:00 TRACK 02 AUDIO TITLE "Squeeze Me" PERFORMER "Jimmy Smith" INDEX 00 03:44:05FILE "02 - Squeeze Me.wav" WAVE INDEX 01 00:00:00 TRACK 03 AUDIO TITLE "Ain't She Sweet" PERFORMER "Jimmy Smith" INDEX 00 05:27:55FILE "03 - Ain't She Sweet.wav" WAVE INDEX 01 00:00:00 TRACK 04 AUDIO TITLE "Ain't Misbehavin'" PERFORMER "Jimmy Smith" INDEX 00 03:33:14FILE "04 - Ain't Misbehavin'.wav" WAVE INDEX 01 00:00:00 TRACK 05 AUDIO TITLE "Lulu's Back In Town" PERFORMER "Jimmy Smith" INDEX 00 03:40:39FILE "05 - Lulu's Back In Town.wav" WAVE INDEX 01 00:00:00 TRACK 06 AUDIO TITLE "Honeysuckle Rose" PERFORMER "Jimmy Smith" INDEX 00 05:14:44FILE "06 - Honeysuckle Rose.wav" WAVE INDEX 01 00:00:00 TRACK 07 AUDIO TITLE "I've Found A New Baby" PERFORMER "Jimmy Smith" INDEX 00 06:56:12FILE "07 - I've Found A New Baby.wav" WAVE INDEX 01 00:00:00


Трекер:  [ 28-Янв-2012 11:10 ]

  

Скачать .torrent

Размер .torrent файла 17 KB


Размер: 199 MB
Хэш (hash) релиза: 04da6a5a7a3b41054bd394d1ab23ec165a4ea4b1

Еще никто не оставлял запись к записи скачать торрент Jimmy Smith - Plays Fats Waller - 1962 {RVG Edition} - 2008, FLAC . Будь первым!

!Обратная связь