Скачать через торрент музыку Jimmy Smith — Midnight Special бесплатно без регистрации torrent

Если у вас наблюдаются проблемы со скриншотами, переходом по ссылками, скачиванием торрентов - проблемы в блокировщике рекламы AdBlock. #хорошегоДня!


Статистика раздачи
Размер:  246 MB   |    Зарегистрирован:  5 лет 8 месяцев   |    .torrent скачан:  26 раз   |   
Раздают:  1  
   
Загрузка...
 
Автор Сообщение

Umakiro

avatar Umakiro


Jimmy Smith — Midnight Special (1960)

Жанр: Hard Bop
Год издания диска: 2007
Лейбл: Blue Note
Номер по каталогу: 92775
Аудио кодек: FLAC (*.flac)
Тип рипа: tracks+.cue
Битрейт аудио: lossless
Продолжительность: 36:48
Релизер: Bezz
Сканы: 300 dpi

Треклист:
01. Midnight Special (9:57)
02. A Subtle One (7:45)
03. Jumpin' The Blues (5:29)
04. Why Was I Born (6:36)
05. One O'Clock Jump (7:00)

Personnel:
Jimmy Smith - org
Stanley Turrentine - ts
Kenny Burrell - g
Donald Bailey - d

Rec.: Van Gelder Studio, Englewood Cliffs, NJ, April 25, 1960.
Remastered in 2007 by Rudy Van Gelder

  
 
Exact Audio Copy V0.99 prebeta 5 from 4. May 2009

EAC extraction logfile from 13. January 2010, 16:50

Jimmy Smith / Midnight Special

Used drive : PLEXTOR CD-R PREMIUM2 Adapter: 1 ID: 1

Read mode : SecureUtilize accurate stream : YesDefeat audio cache : YesMake use of C2 pointers : No

Read offset correction : 30Overread into Lead-In and Lead-Out : NoFill up missing offset samples with silence : YesDelete leading and trailing silent blocks : NoNull samples used in CRC calculations : YesUsed interface : Installed external ASPI interfaceGap handling : Appended to previous track

Used output format : User Defined EncoderSelected bitrate : 32 kBit/sQuality : HighAdd ID3 tag : NoCommand line compressor : C:\Programmi\FLAC\flac.exeAdditional command line options : -8 -V -T "ARTIST=%a" -T "TITLE=%t" -T "ALBUM=%g" -T "DATE=%y" -T "TRACKNUMBER=%n" -T "GENRE=%m" -T "COMMENT=EAC FLAC -8" %s

TOC of the extracted CD

Track | Start | Length | Start sector | End sector --------------------------------------------------------- 1 | 0:00.00 | 9:57.21 | 0 | 44795 2 | 9:57.21 | 7:45.12 | 44796 | 79682 3 | 17:42.33 | 5:29.12 | 79683 | 104369 4 | 23:11.45 | 6:35.49 | 104370 | 134043 5 | 29:47.19 | 7:00.35 | 134044 | 165578

Track 1

Filename D:\My Rip\01 - Midnight Special.wav

Pre-gap length 0:00:02.00

Peak level 97.9 % Track quality 100.0 % Test CRC 2EA1FEFE Copy CRC 2EA1FEFE Accurately ripped (confidence 2) [ED563E3A] Copy OK

Track 2

Filename D:\My Rip\02 - A Subtle One.wav

Pre-gap length 0:00:02.93

Peak level 97.9 % Track quality 100.0 % Test CRC 8067146E Copy CRC 8067146E Accurately ripped (confidence 2) [914DBE21] Copy OK

Track 3

Filename D:\My Rip\03 - Jumpin' the Blues.wav

Pre-gap length 0:00:02.73

Peak level 97.9 % Track quality 100.0 % Test CRC ADF04ED2 Copy CRC ADF04ED2 Accurately ripped (confidence 2) [A86D43EC] Copy OK

Track 4

Filename D:\My Rip\04 - Why Was I Born.wav

Pre-gap length 0:00:03.13

Peak level 97.9 % Track quality 100.0 % Test CRC 8F3F978B Copy CRC 8F3F978B Accurately ripped (confidence 2) [ACFE2C78] Copy OK

Track 5

Filename D:\My Rip\05 - One o'Clock Jump.wav

Pre-gap length 0:00:03.16

Peak level 97.9 % Track quality 100.0 % Test CRC 9253CC49 Copy CRC 9253CC49 Accurately ripped (confidence 2) [BCDA273C] Copy OK

All tracks accurately ripped

No errors occurred

End of status report
 
REM GENRE JazzREM DATE 1961REM DISCID 4D089F05REM COMMENT "ExactAudioCopy v0.99pb5"PERFORMER "Jimmy Smith"TITLE "Midnight Special"FILE "01 - Midnight Special.flac" WAVE TRACK 01 AUDIO TITLE "Midnight Special" PERFORMER "Jimmy Smith" INDEX 01 00:00:00 TRACK 02 AUDIO TITLE "A Subtle One " PERFORMER "Jimmy Smith" INDEX 00 09:54:26FILE "02 - A Subtle One.flac" WAVE INDEX 01 00:00:00 TRACK 03 AUDIO TITLE "Jumpin' the Blues" PERFORMER "Jimmy Smith" INDEX 00 07:42:32FILE "03 - Jumpin' the Blues.flac" WAVE INDEX 01 00:00:00 TRACK 04 AUDIO TITLE "Why Was I Born" PERFORMER "Jimmy Smith" INDEX 00 05:26:02FILE "04 - Why Was I Born.flac" WAVE INDEX 01 00:00:00 TRACK 05 AUDIO TITLE "One o'Clock Jump" PERFORMER "Jimmy Smith" INDEX 00 06:32:37FILE "05 - One o'Clock Jump.flac" WAVE INDEX 01 00:00:00


Трекер:  [ 28-Янв-2012 11:09 ]

  

Скачать .torrent

Размер .torrent файла 6 KB


Размер: 246 MB
Хэш (hash) релиза: 47c426a04cf2e8f0769cf513d4a28460899da20d

Еще никто не оставлял запись к записи скачать торрент Jimmy Smith — Midnight Special . Будь первым!

!Обратная связь