Скачать через торрент музыку Jimmy Smith - The Sounds Of Jimmy Smith бесплатно без регистрации torrent

Если у вас наблюдаются проблемы со скриншотами, переходом по ссылками, скачиванием торрентов - проблемы в блокировщике рекламы AdBlock. #хорошегоДня!


Статистика раздачи
Размер:  372 MB   |    Зарегистрирован:  5 лет 8 месяцев   |    .torrent скачан:  36 раз   |   
Раздают:  1  
   
Загрузка...
 
Автор Сообщение

Umakiro

avatar Umakiro


Jimmy Smith - The Sounds Of Jimmy Smith
Жанр: Soul Jazz / Organ
Год выпуска диска: 2005
Производитель диска: Blue Note: RVG Edition (11426)
Аудио кодек: FLAC
Тип рипа: tracks+.cue
Битрейт аудио: lossless
Продолжительность: 1:01:53
Треклист:
01. There Will Never Be Another You (5:36)
02. The Fight (5:05)
03. Blue Moon (8:43)
04. All The Things You Are (5:37)
05. Zing Went The Strings Of My Heart (8:37)
06. Somebody Loves Me (5:15)
07. First Night Blues (8:06)
08. Cherokee (8:12)
09. The Third Day (6:42)

Jimmy Smith - organ
Eddie McFadden, Thornel Schwartz - guitar
Art Blakey - drums [#5, 7]
Donald Bailey - drums

Recorded at Manhattan Towers, New York, February 1957

За релиз спасибо mtpisgah
 
X Lossless Decoder version 20100401 (117.0)

XLD extraction logfile from 2010-04-07 11:09:08 -0400

Jimmy Smith / The Sounds Of Jimmy Smith

Used drive : MATSHITA CD-RW CW-8221 (revision GA0J)

Use cdparanoia mode : YES (CDParanoia III 10.2 engine)Disable audio cache : OK for the drive with cache less than 2750KBMake use of C2 pointers : NORead offset correction : 102Max retry count : 100

TOC of the extracted CD Track | Start | Length | Start sector | End sector --------------------------------------------------------- 1 | 00:00:00 | 05:35:38 | 0 | 25162 2 | 05:35:38 | 05:05:19 | 25163 | 48056 3 | 10:40:57 | 08:42:72 | 48057 | 87278 4 | 19:23:54 | 05:37:04 | 87279 | 112557 5 | 25:00:58 | 08:37:22 | 112558 | 151354 6 | 33:38:05 | 05:14:51 | 151355 | 174955 7 | 38:52:56 | 08:06:03 | 174956 | 211408 8 | 46:58:59 | 08:12:15 | 211409 | 248323 9 | 55:10:74 | 06:41:45 | 248324 | 278443

List of alternate offset correction values # | Absolute | Relative | Confidence ------------------------------------------ 1 | 84 | -18 | 2

All Tracks Album gain : -5.86 dB Peak : 0.979736

Track 01 Filename : /Users/christopherwlach/Music/XLD rips/Jimmy Smith - The Sound Of Jimmy Smith (FLAC)/01 - There Will Never Be Another You.flac

Pre-gap length : 00:02:00

Track gain : -5.65 dB Peak : 0.979736 CRC32 hash (test run) : 4E759F09 CRC32 hash : 4E759F09 CRC32 hash (skip zero) : 22211648 AccurateRip signature : CAC456AD ->Accurately ripped! (confidence 3) Statistics Read error : 0 Skipped (treated as error) : 0 Edge jitter error (maybe fixed) : 0 Atom jitter error (maybe fixed) : 0 Drift error (maybe fixed) : 0 Dropped bytes error (maybe fixed) : 0 Duplicated bytes error (maybe fixed) : 0 Inconsistency in error sectors : 0

Track 02 Filename : /Users/christopherwlach/Music/XLD rips/Jimmy Smith - The Sound Of Jimmy Smith (FLAC)/02 - The Fight.flac

Pre-gap length : 00:02:39

Track gain : -5.05 dB Peak : 0.931122 CRC32 hash (test run) : 0C2744D4 CRC32 hash : 0C2744D4 CRC32 hash (skip zero) : A8D16734 AccurateRip signature : F239159B ->Accurately ripped! (confidence 3) Statistics Read error : 0 Skipped (treated as error) : 0 Edge jitter error (maybe fixed) : 0 Atom jitter error (maybe fixed) : 0 Drift error (maybe fixed) : 0 Dropped bytes error (maybe fixed) : 0 Duplicated bytes error (maybe fixed) : 0 Inconsistency in error sectors : 0

Track 03 Filename : /Users/christopherwlach/Music/XLD rips/Jimmy Smith - The Sound Of Jimmy Smith (FLAC)/03 - Blue Moon.flac

Pre-gap length : 00:02:52

Track gain : -5.71 dB Peak : 0.979706 CRC32 hash (test run) : 91DA3AA9 CRC32 hash : 91DA3AA9 CRC32 hash (skip zero) : 9FE994BA AccurateRip signature : 77A036E3 ->Accurately ripped! (confidence 3) Statistics Read error : 0 Skipped (treated as error) : 0 Edge jitter error (maybe fixed) : 0 Atom jitter error (maybe fixed) : 0 Drift error (maybe fixed) : 0 Dropped bytes error (maybe fixed) : 0 Duplicated bytes error (maybe fixed) : 0 Inconsistency in error sectors : 0

Track 04 Filename : /Users/christopherwlach/Music/XLD rips/Jimmy Smith - The Sound Of Jimmy Smith (FLAC)/04 - All The Things You Are.flac

Pre-gap length : 00:02:35

Track gain : -5.72 dB Peak : 0.979736 CRC32 hash (test run) : 3A0DA6F6 CRC32 hash : 3A0DA6F6 CRC32 hash (skip zero) : 858C0F5B AccurateRip signature : CEF6D517 ->Accurately ripped! (confidence 3) Statistics Read error : 0 Skipped (treated as error) : 0 Edge jitter error (maybe fixed) : 0 Atom jitter error (maybe fixed) : 0 Drift error (maybe fixed) : 0 Dropped bytes error (maybe fixed) : 0 Duplicated bytes error (maybe fixed) : 0 Inconsistency in error sectors : 0

Track 05 Filename : /Users/christopherwlach/Music/XLD rips/Jimmy Smith - The Sound Of Jimmy Smith (FLAC)/05 - Zing Went The Strings Of My Heart.flac

Pre-gap length : 00:03:02

Track gain : -6.99 dB Peak : 0.979736 CRC32 hash (test run) : 9507C6C3 CRC32 hash : 9507C6C3 CRC32 hash (skip zero) : D7DCD14A AccurateRip signature : 49FE8D58 ->Accurately ripped! (confidence 3) Statistics Read error : 0 Skipped (treated as error) : 0 Edge jitter error (maybe fixed) : 0 Atom jitter error (maybe fixed) : 0 Drift error (maybe fixed) : 0 Dropped bytes error (maybe fixed) : 0 Duplicated bytes error (maybe fixed) : 0 Inconsistency in error sectors : 0

Track 06 Filename : /Users/christopherwlach/Music/XLD rips/Jimmy Smith - The Sound Of Jimmy Smith (FLAC)/06 - Somebody Loves Me.flac

Pre-gap length : 00:03:16

Track gain : -5.15 dB Peak : 0.979736 CRC32 hash (test run) : F32AE81B CRC32 hash : F32AE81B CRC32 hash (skip zero) : 84D18CBD AccurateRip signature : 88520E08 ->Accurately ripped! (confidence 3) Statistics Read error : 0 Skipped (treated as error) : 0 Edge jitter error (maybe fixed) : 0 Atom jitter error (maybe fixed) : 0 Drift error (maybe fixed) : 0 Dropped bytes error (maybe fixed) : 0 Duplicated bytes error (maybe fixed) : 0 Inconsistency in error sectors : 0

Track 07 Filename : /Users/christopherwlach/Music/XLD rips/Jimmy Smith - The Sound Of Jimmy Smith (FLAC)/07 - First Night Blues.flac

Pre-gap length : 00:03:13

Track gain : -6.95 dB Peak : 0.979736 CRC32 hash (test run) : 76F47B87 CRC32 hash : 76F47B87 CRC32 hash (skip zero) : CA334D93 AccurateRip signature : D713B37C ->Accurately ripped! (confidence 3) Statistics Read error : 0 Skipped (treated as error) : 0 Edge jitter error (maybe fixed) : 0 Atom jitter error (maybe fixed) : 0 Drift error (maybe fixed) : 0 Dropped bytes error (maybe fixed) : 0 Duplicated bytes error (maybe fixed) : 0 Inconsistency in error sectors : 0

Track 08 Filename : /Users/christopherwlach/Music/XLD rips/Jimmy Smith - The Sound Of Jimmy Smith (FLAC)/08 - Cherokee.flac

Pre-gap length : 00:03:12

Track gain : -4.77 dB Peak : 0.979736 CRC32 hash (test run) : BB8F0C48 CRC32 hash : BB8F0C48 CRC32 hash (skip zero) : 62CF4886 AccurateRip signature : CA582C99 ->Accurately ripped! (confidence 3) Statistics Read error : 0 Skipped (treated as error) : 0 Edge jitter error (maybe fixed) : 0 Atom jitter error (maybe fixed) : 0 Drift error (maybe fixed) : 0 Dropped bytes error (maybe fixed) : 0 Duplicated bytes error (maybe fixed) : 0 Inconsistency in error sectors : 0

Track 09 Filename : /Users/christopherwlach/Music/XLD rips/Jimmy Smith - The Sound Of Jimmy Smith (FLAC)/09 - The Third Day.flac

Pre-gap length : 00:03:01

Track gain : -5.12 dB Peak : 0.979736 CRC32 hash (test run) : 0E55C117 CRC32 hash : 0E55C117 CRC32 hash (skip zero) : E667A9BE AccurateRip signature : 9C2D83CA ->Accurately ripped! (confidence 3) Statistics Read error : 0 Skipped (treated as error) : 0 Edge jitter error (maybe fixed) : 0 Atom jitter error (maybe fixed) : 0 Drift error (maybe fixed) : 0 Dropped bytes error (maybe fixed) : 0 Duplicated bytes error (maybe fixed) : 0 Inconsistency in error sectors : 0

No errors occurred

End of status report
 
TITLE "The Sound Of Jimmy Smith"PERFORMER "Jimmy Smith"CATALOG 0094631142628REM GENRE "Jazz"REM DATE 1957FILE "01 - There Will Never Be Another You.wav" WAVE TRACK 01 AUDIO TITLE "There Will Never Be Another You" SONGWRITER "Harry Warren/Mack Gordon" ISRC USBN20300521 INDEX 01 00:00:00 TRACK 02 AUDIO TITLE "The Fight" SONGWRITER "Jimmy Smith" ISRC USBN20300522 INDEX 00 05:32:74FILE "02 - The Fight.wav" WAVE INDEX 01 00:00:00 TRACK 03 AUDIO TITLE "Blue Moon" SONGWRITER "Lorenz Hart/Richard Rodgers" ISRC USBN20300518 INDEX 00 05:02:42FILE "03 - Blue Moon.wav" WAVE INDEX 01 00:00:00 TRACK 04 AUDIO TITLE "All The Things You Are" SONGWRITER "Jerome Kern/Oscar Hammerstein II" ISRC USBN20300523 INDEX 00 08:40:37FILE "04 - All The Things You Are.wav" WAVE INDEX 01 00:00:00 TRACK 05 AUDIO TITLE "Zing Went The Strings Of My Heart" SONGWRITER "James F. Hanley" ISRC USBN20300524 INDEX 00 05:34:02FILE "05 - Zing Went The Strings Of My Heart.wav" WAVE INDEX 01 00:00:00 TRACK 06 AUDIO TITLE "Somebody Loves Me" SONGWRITER "Buddy De Sylva/George Gershwin/Ballard McDonald" ISRC USBN20300519 INDEX 00 08:34:06FILE "06 - Somebody Loves Me.wav" WAVE INDEX 01 00:00:00 TRACK 07 AUDIO TITLE "First Night Blues" SONGWRITER "Jimmy Smith" ISRC USBN20300526 INDEX 00 05:11:38FILE "07 - First Night Blues.wav" WAVE INDEX 01 00:00:00 TRACK 08 AUDIO TITLE "Cherokee" SONGWRITER "Ray Noble" ISRC USBN20300527 INDEX 00 08:02:66FILE "08 - Cherokee.wav" WAVE INDEX 01 00:00:00 TRACK 09 AUDIO TITLE "The Third Day" SONGWRITER "Jimmy Smith" ISRC USBN20300527 INDEX 00 08:09:14FILE "09 - The Third Day.wav" WAVE INDEX 01 00:00:00


Трекер:  [ 28-Янв-2012 11:08 ]

  

Скачать .torrent

Размер .torrent файла 15 KB


Размер: 372 MB
Хэш (hash) релиза: bf94c345fe6393e0784f6376235a7c9659456482

Еще никто не оставлял запись к записи скачать торрент Jimmy Smith - The Sounds Of Jimmy Smith . Будь первым!

!Обратная связь