Скачать через торрент музыку Jimmy Smith - Rockin the Boat бесплатно без регистрации torrent

Если у вас наблюдаются проблемы со скриншотами, переходом по ссылками, скачиванием торрентов - проблемы в блокировщике рекламы AdBlock. #хорошегоДня!


Статистика раздачи
Размер:  249 MB   |    Зарегистрирован:  5 лет 8 месяцев   |    .torrent скачан:  39 раз   |   
Раздают:  1  
   
Загрузка...
 
Автор Сообщение

Umakiro

avatar Umakiro


Jimmy Smith - Rockin' the Boat
Жанр: Hard Bop / Soul Jazz / Organ
Год выпуска диска: 2004
Производитель диска: Blue Note: RVG Edition (7243 5 90841 2 1)
Аудио кодек: FLAC
Тип рипа: tracks+.cue
Битрейт аудио: lossless
Продолжительность: 0:38:33
Треклист:
01. When My Dreamboat Comes Home (7:29)
02. Pork Chop (7:40)
03. Matilda, Matilda! (3:00)
04. Can Heat (5:25)
05. Please Send Me Someone to Love (6:14)
06. Just a Closer Walk With Thee (3:48)
07. Trust in Me (4:57)

Lou Donaldson - alto sax
Jimmy Smith - organ
Qyentin Warren - guitar
Donald Bailey - drums
John Patton - tambourine [#2, 3, 6]

Recorded on February 7, 1963 at the Van Gelder Studio, Englewood Cliffs, New Jersey

За релиз спасибо Anandh2460
 
Exact Audio Copy V0.99 prebeta 5 from 4. May 2009

EAC extraction logfile from 19. January 2010, 16:42

Jimmy Smith / Rockin' the Boat

Used drive : LITE-ON DVDRW SHW-160P6S Adapter: 0 ID: 1

Read mode : SecureUtilize accurate stream : YesDefeat audio cache : YesMake use of C2 pointers : No

Read offset correction : 6Overread into Lead-In and Lead-Out : NoFill up missing offset samples with silence : YesDelete leading and trailing silent blocks : NoNull samples used in CRC calculations : YesUsed interface : Native Win32 interface for Win NT & 2000Gap handling : Appended to previous track

Used output format : User Defined EncoderSelected bitrate : 128 kBit/sQuality : HighAdd ID3 tag : NoCommand line compressor : C:\*\flac.exeAdditional command line options : -V -8 -T "artist=%a" -T "title=%t" -T "album=%g" -T "date=%y" -T "tracknumber=%n" %s

TOC of the extracted CD

Track | Start | Length | Start sector | End sector --------------------------------------------------------- 1 | 0:00.00 | 7:29.21 | 0 | 33695 2 | 7:29.21 | 7:39.57 | 33696 | 68177 3 | 15:09.03 | 2:59.57 | 68178 | 81659 4 | 18:08.60 | 5:24.64 | 81660 | 106023 5 | 23:33.49 | 6:14.16 | 106024 | 134089 6 | 29:47.65 | 3:48.05 | 134090 | 151194 7 | 33:35.70 | 4:56.60 | 151195 | 173454

Track 1

Filename C:\*\01. When My Dreamboat Comes Home.wav

Pre-gap length 0:00:02.00

Peak level 97.9 % Track quality 99.9 % Test CRC 80D0BD49 Copy CRC 80D0BD49 Accurately ripped (confidence 7) [E2ED28BC] Copy OK

Track 2

Filename C:\*\02. Pork Chop.wav

Pre-gap length 0:00:02.80

Peak level 97.9 % Track quality 100.0 % Test CRC 9FAF335D Copy CRC 9FAF335D Accurately ripped (confidence 7) [D017C329] Copy OK

Track 3

Filename C:\*\03. Matilda, Matilda!.wav

Pre-gap length 0:00:01.48

Peak level 97.9 % Track quality 100.0 % Test CRC 11C2F1E7 Copy CRC 11C2F1E7 Accurately ripped (confidence 7) [381F3DD9] Copy OK

Track 4

Filename C:\*\04. Can Heat.wav

Pre-gap length 0:00:01.50

Peak level 98.0 % Track quality 100.0 % Test CRC 279038E7 Copy CRC 279038E7 Accurately ripped (confidence 7) [5309BFE1] Copy OK

Track 5

Filename C:\*\05. Please Send Me Someone to Love.wav

Pre-gap length 0:00:02.52

Peak level 97.9 % Track quality 99.9 % Test CRC 9A76CA0B Copy CRC 9A76CA0B Accurately ripped (confidence 8) [42BA828C] Copy OK

Track 6

Filename C:\*\06. Just a Closer Walk With Thee.wav

Pre-gap length 0:00:02.52

Peak level 97.9 % Track quality 100.0 % Test CRC 24865E92 Copy CRC 24865E92 Accurately ripped (confidence 8) [C50A7126] Copy OK

Track 7

Filename C:\*\07. Trust in Me.wav

Pre-gap length 0:00:01.77

Peak level 97.9 % Track quality 100.0 % Test CRC E6C6D351 Copy CRC E6C6D351 Accurately ripped (confidence 7) [67F0871B] Copy OK

All tracks accurately ripped

No errors occurred

End of status report
 
REM GENRE JazzREM DATE 1963REM DISCID 4F090807REM COMMENT "ExactAudioCopy v0.99pb5"CATALOG 07010435460<3PERFORMER "Jimmy Smith"TITLE "Rockin' the Boat"FILE "01. When My Dreamboat Comes Home.wav" WAVE TRACK 01 AUDIO TITLE "When My Dreamboat Comes Home" PERFORMER "Jimmy Smith" ISRC 1`44=4600381 INDEX 01 00:00:00 TRACK 02 AUDIO TITLE "Pork Chop" PERFORMER "Jimmy Smith" ISRC 1`44=4600381 INDEX 00 07:26:36FILE "02. Pork Chop.wav" WAVE INDEX 01 00:00:00 TRACK 03 AUDIO TITLE "Matilda, Matilda!" PERFORMER "Jimmy Smith" ISRC 1`44=4600381 INDEX 00 07:38:21FILE "03. Matilda, Matilda!.wav" WAVE INDEX 01 00:00:00 TRACK 04 AUDIO TITLE "Can Heat" PERFORMER "Jimmy Smith" ISRC 1`44=4600381 INDEX 00 02:58:19FILE "04. Can Heat.wav" WAVE INDEX 01 00:00:00 TRACK 05 AUDIO TITLE "Please Send Me Someone to Love" PERFORMER "Jimmy Smith" ISRC 1`44=4600381 INDEX 00 05:22:25FILE "05. Please Send Me Someone to Love.wav" WAVE INDEX 01 00:00:00 TRACK 06 AUDIO TITLE "Just a Closer Walk With Thee" PERFORMER "Jimmy Smith" ISRC 1`44=4600381 INDEX 00 06:11:52FILE "06. Just a Closer Walk With Thee.wav" WAVE INDEX 01 00:00:00 TRACK 07 AUDIO TITLE "Trust in Me" PERFORMER "Jimmy Smith" ISRC 1`44=4600381 INDEX 00 03:46:22FILE "07. Trust in Me.wav" WAVE INDEX 01 00:00:00


Трекер:  [ 28-Янв-2012 11:08 ]

  

Скачать .torrent

Размер .torrent файла 21 KB


Размер: 249 MB
Хэш (hash) релиза: c1be5560bc73017f4e1bdc02975a3ea070a22277

Еще никто не оставлял запись к записи скачать торрент Jimmy Smith - Rockin the Boat . Будь первым!

!Обратная связь