Скачать через торрент музыку Jimmy Smith - House Party бесплатно без регистрации torrent

Если у вас наблюдаются проблемы со скриншотами, переходом по ссылками, скачиванием торрентов - проблемы в блокировщике рекламы AdBlock. #хорошегоДня!


Статистика раздачи
Размер:  377 MB   |    Зарегистрирован:  5 лет 8 месяцев   |    .torrent скачан:  26 раз   |   
Раздают:  1  
   
Загрузка...
 
Автор Сообщение

Umakiro

avatar Umakiro


Jimmy Smith - House Party (RVG edition, 2000)

Жанр: Bop, Hard Bop
Издание: Blue Note Records: RVG Edition 7243 5 24542 2 8, 2000 год
Аудио кодек: APE
Тип рипа: image+.cue
Продолжительность: 0:54:07

Трэклист:

1 Au Privave (15:07)
2 Lover Man (6:58)
3 Just Friends (15:13)
4 Blues After All (6:04)
5 Confirmation (10:32)

Персоналии:

Drums - Art Blakey , Donald Bailey
Engineer, Producer, Mastered By [Remastering] - Rudy Van Gelder
Guitar - Eddie McFadden , Kenny Burrell
Organ - Jimmy Smith
Saxophone [Alto] - George Coleman , Lou Donaldson
Saxophone [Tenor] - Tina Brooks
Trombone - Curtis Fuller
Trumpet - Lee Morgan
Exact Audio Copy V0.99 prebeta 4 from 23. January 2008

Отчёт EAC об извлечении, выполненном 16. марта 2009, 18:03

Jimmy Smith / House Party

Дисковод: PIONEER DVD-RW DVR-108 Adapter: 4 ID: 1

Режим чтения : Достоверность
Использование точного потока : Да
Отключение кэша аудио : Да
Использование указателей C2 : Нет

Коррекция смещения при чтении : 48
Способность читать области Lead-in и Lead-out : Нет
Заполнение пропущенных сэмплов тишиной : Да
Удаление блоков с тишиной в начале и конце : Нет
При вычислениях CRC использовались нулевые сэмплы : Да
Интерфейс : Встроенный Win32-интерфейс для Win NT/2000

Выходной формат : Внутренние WAV-операции
Формат сэмплов : 44.100 Гц; 16 бит; стерео

TOC извлечённого CD

Трек | Старт | Длительность | Начальный сектор | Конечный сектор
---------------------------------------------------------------------
1 | 0:00.00 | 15:09.72 | 0 | 68246
2 | 15:09.72 | 7:00.48 | 68247 | 99794
3 | 22:10.45 | 15:15.44 | 99795 | 168463
4 | 37:26.14 | 6:06.55 | 168464 | 195968
5 | 43:32.69 | 10:34.33 | 195969 | 243551

Характеристики диапазона извлечения и сообщения об ошибках

Выбранный диапазон

Имя файла J:\New Torrents\Jimmy Smith - House Party\Jimmy Smith - House Party.wav

Пиковый уровень 97.9 %
Качество диапазона 100.0 %
CRC копии 7EA302F6
Копирование... OK

Ошибок не произошло

AccurateRip: сводка

Трек 1 точное извлечение (доверие 6) [7E4BB730]
Трек 2 точное извлечение (доверие 6) [1F69E539]
Трек 3 точное извлечение (доверие 6) [CA592D46]
Трек 4 точное извлечение (доверие 6) [8CCF2EDD]
Трек 5 точное извлечение (доверие 6) [4B57916A]

Все треки извлечены точно

Конец отчёта
Сканы (300dpi, jpg) вложены.

Трекер:  [ 28-Янв-2012 11:07 ]

  

Скачать .torrent

Размер .torrent файла 15 KB


Размер: 377 MB
Хэш (hash) релиза: 6eac46f21eb3c6c9be720958608346f79dfa62fb

Еще никто не оставлял запись к записи скачать торрент Jimmy Smith - House Party . Будь первым!

!Обратная связь