Скачать через торрент музыку Jimmy Smith - Bucket! {RVG Edition} - 1963, FLAC бесплатно без регистрации torrent

Если у вас наблюдаются проблемы со скриншотами, переходом по ссылками, скачиванием торрентов - проблемы в блокировщике рекламы AdBlock. #хорошегоДня!


Статистика раздачи
Размер:  240 MB   |    Зарегистрирован:  5 лет 8 месяцев   |    .torrent скачан:  32 раза   |   
Раздают:  1  
   
Загрузка...
 
Автор Сообщение

Umakiro

avatar Umakiro


Jimmy Smith - Bucket! {RVG Edition}

Жанр: Soul-Jazz, Hard Bop
Год выпуска диска: 1963
Производитель диска: Россия (лицензия)
Аудио кодек: FLAC
Тип рипа: image+.cue
Битрейт аудио: lossless
Продолжительность: 45:10
Лейбл: Blue Note

Трэклист:
1 Bucket
2 Careless Love
3 3 for 4
4 Just Squeeze Me (But Don't Tease Me)
5 Sassy Mae
6 Come Rain or Come Shine
7 John Brown's Body
8 Trouble in Mind
9 Sassy Mae [alternate take]

Музыканты:
Jimmy Smith, organ
Quentin Warren, guitar
Donald Bailey, drums
Exact Audio Copy V0.99 prebeta 4 from 23. January 2008

Отчёт EAC об извлечении, выполненном 8. февраля 2009, 14:55

Jimmy Smith / Bucket

Дисковод: _NEC NR-7900A Adapter: 3 ID: 1

Режим чтения : Достоверность
Использование точного потока : Да
Отключение кэша аудио : Да
Использование указателей C2 : Нет

Коррекция смещения при чтении : 685
Способность читать области Lead-in и Lead-out : Нет
Заполнение пропущенных сэмплов тишиной : Да
Удаление блоков с тишиной в начале и конце : Нет
При вычислениях CRC использовались нулевые сэмплы : Да
Интерфейс : Установленный внешний ASPI-интерфейс

Выходной формат : Пользовательский кодировщик
Выбранный битрейт : 768 kBit/s
Качество : Высокий
Добавление ID3-тэга : Нет
Утилита сжатия : C:\Program Files\Exact Audio Copy\FLAC\FLAC.EXE
Дополнительные параметры : -6 -V -T "ARTIST=%a" -T "TITLE=%t" -T "ALBUM=%g" -T "DATE=%y" -T "TRACKNUMBER=%n" -T "GENRE=%m" -T "COMMENT=%e" %s -o %d

TOC извлечённого CD

Трек | Старт | Длительность | Начальный сектор | Конечный сектор
---------------------------------------------------------------------
1 | 0:00.00 | 4:43.10 | 0 | 21234
2 | 4:43.10 | 3:53.40 | 21235 | 38749
3 | 8:36.50 | 4:49.55 | 38750 | 60479
4 | 13:26.30 | 5:44.70 | 60480 | 86349
5 | 19:11.25 | 4:20.17 | 86350 | 105866
6 | 23:31.42 | 5:47.23 | 105867 | 131914
7 | 29:18.65 | 6:21.02 | 131915 | 160491
8 | 35:39.67 | 5:39.48 | 160492 | 185964
9 | 41:19.40 | 3:50.67 | 185965 | 203281

Характеристики диапазона извлечения и сообщения об ошибках

Выбранный диапазон

Имя файла D:\My Music\ext\Архивы\Jimmy Smith - Bucket\Jimmy Smith - Bucket.wav

Пиковый уровень 98.8 %
Качество диапазона 99.9 %
CRC копии 3F14F2EF
Копирование... OK

Ошибок не произошло

Конец отчёта
Доп. информация:
Originally recorded on February 1, 1963 at the Van Gelder Studio, Englewood Cliffs, New Jersey

Трекер:  [ 28-Янв-2012 11:06 ]

  

Скачать .torrent

Размер .torrent файла 19 KB


Размер: 240 MB
Хэш (hash) релиза: 99873599d99f7b2b717f296688c0700163b75241

Еще никто не оставлял запись к записи скачать торрент Jimmy Smith - Bucket! {RVG Edition} - 1963, FLAC . Будь первым!

!Обратная связь