Скачать через торрент музыку Jackie McLean Let freedom ring - 1961, APE бесплатно без регистрации torrent

Если у вас наблюдаются проблемы со скриншотами, переходом по ссылками, скачиванием торрентов - проблемы в блокировщике рекламы AdBlock. #хорошегоДня!


Статистика раздачи
Размер:  251 MB   |    Зарегистрирован:  5 лет 8 месяцев   |    .torrent скачан:  23 раза   |   
Раздают:  1  
   
Загрузка...
 
Автор Сообщение

Umakiro

avatar Umakiro


Jackie McLean - Let freedom ring

Жанр: Jazz
Год выпуска диска: 1961
Производитель диска: Japan
Аудио кодек: APE
Тип рипа: image+.cue
Битрейт аудио: lossless
Продолжительность: 38,7.76 мин
Трэклист:
1. Jackie McLean - Melody For Melonae (13:19)
2. Jackie McLean - I'll Keep Loving You (6:17)
3. Jackie McLean - Rene (10:00)
4. Jackie McLean - Omega (8:30)
Exact Audio Copy V0.99 prebeta 4 from 23. January 2008

Отчёт EAC об извлечении, выполненном 16. декабря 2008, 19:46

Jackie McLean / Let freedom ring

Дисковод: Optiarc DVD RW AD-7200A Adapter: 1 ID: 0

Режим чтения : Достоверность
Использование точного потока : Да
Отключение кэша аудио : Да
Использование указателей C2 : Нет

Коррекция смещения при чтении : 48
Способность читать области Lead-in и Lead-out : Нет
Заполнение пропущенных сэмплов тишиной : Да
Удаление блоков с тишиной в начале и конце : Нет
При вычислениях CRC использовались нулевые сэмплы : Да
Интерфейс : Встроенный Win32-интерфейс для Win NT/2000

Выходной формат : Внутренние WAV-операции
Формат сэмплов : 44.100 Гц; 16 бит; стерео

TOC извлечённого CD

Трек | Старт | Длительность | Начальный сектор | Конечный сектор
---------------------------------------------------------------------
1 | 0:00.00 | 13:19.54 | 0 | 59978
2 | 13:19.54 | 6:17.10 | 59979 | 88263
3 | 19:36.64 | 10:00.14 | 88264 | 133277
4 | 29:37.03 | 8:30.73 | 133278 | 171600

Характеристики диапазона извлечения и сообщения об ошибках

Выбранный диапазон

Имя файла E:\рипы\Jackie McLean - Let freedom ring.wav

Пиковый уровень 97.9 %
Качество диапазона 100.0 %
CRC теста 66D1149C
CRC копии 66D1149C
Копирование... OK

Ошибок не произошло

Конец отчёта


Трекер:  [ 28-Янв-2012 11:05 ]

  

Скачать .torrent

Размер .torrent файла 20 KB


Размер: 251 MB
Хэш (hash) релиза: 45c5106eb4999d305b793b2a30e913880662de0a

Еще никто не оставлял запись к записи скачать торрент Jackie McLean Let freedom ring - 1961, APE . Будь первым!

!Обратная связь