Скачать через торрент музыку Jackie McLean - One Step Beyond {RVG Edition} - 1963, FLAC бесплатно без регистрации torrent

Если у вас наблюдаются проблемы со скриншотами, переходом по ссылками, скачиванием торрентов - проблемы в блокировщике рекламы AdBlock. #хорошегоДня!


Статистика раздачи
Размер:  307 MB   |    Зарегистрирован:  5 лет 8 месяцев   |    .torrent скачан:  33 раза   |   
Раздают:  1  
   
Загрузка...
 
Автор Сообщение

Umakiro

avatar Umakiro


Jackie McLean - One Step Beyond {RVG Edition}

Жанр: jazz / hard bop
Год выпуска диска: 1963
Производитель диска: USA
Аудио кодек: FLAC
Тип рипа: tracks+.cue
Битрейт аудио: lossless
Продолжительность: 47:00
Лейбл: Blue Note Records (RVG Edition)
Источник: собственный рип, full scans incl.(300dpi)

Трэклист:
1. Saturday And Sunday
2. Frankenstein
3. Blue Rondo
4. Ghost Town
5. Saturday And Sunday
[Alternate Take]

Доп. информация:
Producer: Alfred Lion, Michael Cuscuna (Reissue)
Audio Remasterer: Rudy Van Gelder.
Personnel:
Jackie McLean (alto saxophone);
Grachan Moncur III (trombone);
Bobby Hutcherson (vibraphone);
Eddie Khan (bass);
Tony Williams (drums).

Recorded at the Van Gelder Studio, Englewood Cliffs, New Jersey on April 30, 1963.

A standout in Jackie McLean's discography, and one of the gems in the wave of early-'60s jazz that blended post-bop with the avant garde, ONE STEP BEYOND is an album that stands the test of time. Reflecting McLean's blues-drenched roots, but versed in the then-new innovations of Ornette Coleman and John Coltrane, this 1963 date looks forward and backward at once, stepping outside tradition while still swinging intensely. In addition to composing two of four excellent pieces, McLean assembled a top-flight line-up that includes vibraphonist Bobby Hutcherson, drummer Tony Williams, bassist Eddie Khan, and trombonist Grachan Moncur III. The ensemble pushes at the tunes' architectural sonic space, winding both inside and outside for a thrilling ride that showcases the visionary talents of each member. Moncur's two other compositions are among the album's highlights.
 
Exact Audio Copy V0.99 prebeta 5 from 4. May 2009

EAC extraction logfile from 30. August 2009, 12:35

Jackie McLean / One Step Beyond

Used drive : HL-DT-STDVDRAM GH22NS40 Adapter: 2 ID: 0

Read mode : SecureUtilize accurate stream : YesDefeat audio cache : YesMake use of C2 pointers : No

Read offset correction : 667Overread into Lead-In and Lead-Out : NoFill up missing offset samples with silence : YesDelete leading and trailing silent blocks : NoNull samples used in CRC calculations : YesUsed interface : Native Win32 interface for Win NT & 2000Gap handling : Appended to previous track

Used output format : User Defined EncoderSelected bitrate : 128 kBit/sQuality : HighAdd ID3 tag : NoCommand line compressor : C:\Program Files (x86)\Exact Audio Copy\Flac\flac.exeAdditional command line options : -8 -V -T "ARTIST=%a" -T "TITLE=%t" -T "ALBUM=%g" -T "DATE=%y" -T "TRACKNUMBER=%n" -T "GENRE=%m" -T "COMMENT=EAC FLAC -8" %s

TOC of the extracted CD

Track | Start | Length | Start sector | End sector --------------------------------------------------------- 1 | 0:00.00 | 10:31.04 | 0 | 47328 2 | 10:31.04 | 8:26.55 | 47329 | 85333 3 | 18:57.59 | 4:52.37 | 85334 | 107270 4 | 23:50.21 | 14:39.01 | 107271 | 173196 5 | 38:29.22 | 8:32.15 | 173197 | 211611

Track 1

Filename H:\Jazz Music\ONLY JAZZ\Jackie McLean\Jackie McLean - One Step Beyond - 1963 {RVG Edition}\01. Saturday And Sunday.wav

Pre-gap length 0:00:02.00

Peak level 97.9 % Track quality 100.0 % Test CRC D50B3C63 Copy CRC D50B3C63 Track not present in AccurateRip database Copy OK

Track 2

Filename H:\Jazz Music\ONLY JAZZ\Jackie McLean\Jackie McLean - One Step Beyond - 1963 {RVG Edition}\02. Frankenstein.wav

Pre-gap length 0:00:05.57

Peak level 97.9 % Track quality 99.9 % Test CRC 1417FBB0 Copy CRC 1417FBB0 Track not present in AccurateRip database Copy OK

Track 3

Filename H:\Jazz Music\ONLY JAZZ\Jackie McLean\Jackie McLean - One Step Beyond - 1963 {RVG Edition}\03. Blue Rondo.wav

Pre-gap length 0:00:03.98

Peak level 97.9 % Track quality 100.0 % Test CRC 561C14DD Copy CRC 561C14DD Track not present in AccurateRip database Copy OK

Track 4

Filename H:\Jazz Music\ONLY JAZZ\Jackie McLean\Jackie McLean - One Step Beyond - 1963 {RVG Edition}\04. Ghost Town.wav

Pre-gap length 0:00:02.93

Peak level 97.9 % Track quality 100.0 % Test CRC 87B3D196 Copy CRC 87B3D196 Track not present in AccurateRip database Copy OK

Track 5

Filename H:\Jazz Music\ONLY JAZZ\Jackie McLean\Jackie McLean - One Step Beyond - 1963 {RVG Edition}\05. Saturday And Sunday (alt. take).wav

Pre-gap length 0:00:04.56

Peak level 97.9 % Track quality 100.0 % Test CRC 39567AD6 Copy CRC 39567AD6 Track not present in AccurateRip database Copy OK

None of the tracks are present in the AccurateRip database

No errors occurred

End of status report
 
REM GENRE JazzREM DATE 1963REM DISCID 2D0B0505REM COMMENT "ExactAudioCopy v0.99pb5"PERFORMER "Jackie McLean"TITLE "One Step Beyond"FILE "01. Saturday And Sunday.wav" WAVE TRACK 01 AUDIO TITLE "Saturday And Sunday" PERFORMER "Jackie McLean" INDEX 01 00:00:00 TRACK 02 AUDIO TITLE "Frankenstein" PERFORMER "Jackie McLean" INDEX 00 10:25:36FILE "02. Frankenstein.wav" WAVE INDEX 01 00:00:00 TRACK 03 AUDIO TITLE "Blue Rondo" PERFORMER "Jackie McLean" INDEX 00 08:22:56FILE "03. Blue Rondo.wav" WAVE INDEX 01 00:00:00 TRACK 04 AUDIO TITLE "Ghost Town" PERFORMER "Jackie McLean" INDEX 00 04:49:42FILE "04. Ghost Town.wav" WAVE INDEX 01 00:00:00 TRACK 05 AUDIO TITLE "Saturday And Sunday (alt. take)" PERFORMER "Jackie McLean" INDEX 00 14:34:34FILE "05. Saturday And Sunday (alt. take).wav" WAVE INDEX 01 00:00:00


Трекер:  [ 28-Янв-2012 11:05 ]

  

Скачать .torrent

Размер .torrent файла 13 KB


Размер: 307 MB
Хэш (hash) релиза: afc82e49be6f0e507669947dea1d942887bade8f

Еще никто не оставлял запись к записи скачать торрент Jackie McLean - One Step Beyond {RVG Edition} - 1963, FLAC . Будь первым!

!Обратная связь