Скачать через торрент музыку Jackie McLean - Jackies Bag {RVG Edition} - 1959, FLAC бесплатно без регистрации torrent

Если у вас наблюдаются проблемы со скриншотами, переходом по ссылками, скачиванием торрентов - проблемы в блокировщике рекламы AdBlock. #хорошегоДня!


Статистика раздачи
Размер:  437 MB   |    Зарегистрирован:  5 лет 8 месяцев   |    .torrent скачан:  40 раз   |   
Раздают:  1  
   
Загрузка...
 
Автор Сообщение

Umakiro

avatar Umakiro


Jackie McLean - Jackie's Bag {RVG Edition}

Жанр: jazz / hard bop
Год выпуска диска: 1959,1960
Производитель диска: USA
Аудио кодек: FLAC
Тип рипа: tracks+.cue
Битрейт аудио: lossless
Продолжительность: 62:42
Лейбл: Blue Note Records
Источник: Собственный рип с оригинального диска включая обложки (300dpi)

Трэклист:
1. Quadrangle*
2. Blues Inn*
3. Fidel*
4. Appointment in Ghana**
5. A Ballad For Doll**
6. Isle of Java**
7. Street Singer** - (bonus track)
8. Melonae's Dance** - (bonus track)
9. Medina** - (bonus track)


Доп. информация:
Personnel:
Jackie McLean (alto saxophone);
Tina Brooks (tenor saxophone);
Donald Byrd, Blue Mitchell (trumpet);
Sonny Clark, Kenny Drew (piano);
Paul Chambers (bass);
Art Taylor, Philly Joe Jones (drums).

Produced by Alfred Lion

*Recorded at the Van Gelder Studio, Hackensack, New Jersey on January 18, 1959.
*Recorded at the Van Gelder Studio, Englewood Cliffs, New Jersey on September 1, 1960

Originally recorded and remastered in 2002 by Rudy Van Gelder.
All transfers from the analog tapes to digital were made at 24-bit resolution.
Reissue produced by Michael Cuscuna.
Includes liner notes by Leonard Feather and Bob Blumenthal.

By the late 1950's, alto saxophonist Jackie McLean had shaken off any comparisons to Charlie Parker (or other Parker followers), and had become a distinctive performer in his own right. JACKIE'S BAG, assembled from a couple of 1959 sessions, is a fantastic set of hard bop originals with hints of modality (think Miles Davis from this period) and the avant-garde (think Ornette Coleman, who later recorded with McLean). The original release bolstered by three bonus tunes, BAG is full of surging, moody and ominous-sounding jazz with plenty of wonderful solos from McLean, trumpeter Donald Byrd, and the under-recorded saxophonist Tina Brooks.
 
Exact Audio Copy V0.99 prebeta 5 from 4. May 2009

EAC extraction logfile from 27. August 2009, 13:29

Jackie McLean / Jackie's Bag

Used drive : HL-DT-STDVDRAM GH22NS40 Adapter: 2 ID: 0

Read mode : SecureUtilize accurate stream : YesDefeat audio cache : YesMake use of C2 pointers : No

Read offset correction : 667Overread into Lead-In and Lead-Out : NoFill up missing offset samples with silence : YesDelete leading and trailing silent blocks : NoNull samples used in CRC calculations : YesUsed interface : Native Win32 interface for Win NT & 2000Gap handling : Appended to previous track

Used output format : User Defined EncoderSelected bitrate : 128 kBit/sQuality : HighAdd ID3 tag : NoCommand line compressor : C:\Program Files (x86)\Exact Audio Copy\Flac\flac.exeAdditional command line options : -8 -V -T "ARTIST=%a" -T "TITLE=%t" -T "ALBUM=%g" -T "DATE=%y" -T "TRACKNUMBER=%n" -T "GENRE=%m" -T "COMMENT=EAC FLAC -8" %s

TOC of the extracted CD

Track | Start | Length | Start sector | End sector --------------------------------------------------------- 1 | 0:00.00 | 4:45.09 | 0 | 21383 2 | 4:45.09 | 9:07.49 | 21384 | 62457 3 | 13:52.58 | 7:10.47 | 62458 | 94754 4 | 21:03.30 | 7:00.42 | 94755 | 126296 5 | 28:03.72 | 3:20.26 | 126297 | 141322 6 | 31:24.23 | 7:29.40 | 141323 | 175037 7 | 38:53.63 | 10:18.16 | 175038 | 221403 8 | 49:12.04 | 6:49.07 | 221404 | 252085 9 | 56:01.11 | 6:44.18 | 252086 | 282403

Track 1

Filename H:\Jazz Music\ONLY JAZZ\Jackie McLean\Jackie McLean - Jackie's Bag - 1959 {RVG Edition}\01. Quadrangle.wav

Pre-gap length 0:00:02.00

Peak level 100.0 % Track quality 100.0 % Test CRC 5ED1879E Copy CRC 5ED1879E Accurately ripped (confidence 8) [B37FB4F2] Copy OK

Track 2

Filename H:\Jazz Music\ONLY JAZZ\Jackie McLean\Jackie McLean - Jackie's Bag - 1959 {RVG Edition}\02. Blues Inn.wav

Pre-gap length 0:00:02.20

Peak level 100.0 % Track quality 100.0 % Test CRC B92FD06F Copy CRC B92FD06F Accurately ripped (confidence 8) [4F8D7514] Copy OK

Track 3

Filename H:\Jazz Music\ONLY JAZZ\Jackie McLean\Jackie McLean - Jackie's Bag - 1959 {RVG Edition}\03. Fidel.wav

Pre-gap length 0:00:02.32

Peak level 100.0 % Track quality 100.0 % Test CRC D03BB74C Copy CRC D03BB74C Accurately ripped (confidence 8) [24448E03] Copy OK

Track 4

Filename H:\Jazz Music\ONLY JAZZ\Jackie McLean\Jackie McLean - Jackie's Bag - 1959 {RVG Edition}\04. Appointment in Ghana.wav

Pre-gap length 0:00:02.49

Peak level 97.0 % Track quality 100.0 % Test CRC BD6F993F Copy CRC BD6F993F Accurately ripped (confidence 8) [590142AD] Copy OK

Track 5

Filename H:\Jazz Music\ONLY JAZZ\Jackie McLean\Jackie McLean - Jackie's Bag - 1959 {RVG Edition}\05. A Ballad for Doll.wav

Pre-gap length 0:00:03.41

Peak level 78.7 % Track quality 100.0 % Test CRC A03FA577 Copy CRC A03FA577 Accurately ripped (confidence 8) [3EC8F50D] Copy OK

Track 6

Filename H:\Jazz Music\ONLY JAZZ\Jackie McLean\Jackie McLean - Jackie's Bag - 1959 {RVG Edition}\06. Isle of Java.wav

Pre-gap length 0:00:03.52

Peak level 99.9 % Track quality 100.0 % Test CRC 43C765C2 Copy CRC 43C765C2 Accurately ripped (confidence 8) [0CA4B41F] Copy OK

Track 7

Filename H:\Jazz Music\ONLY JAZZ\Jackie McLean\Jackie McLean - Jackie's Bag - 1959 {RVG Edition}\07. Street Singer.wav

Pre-gap length 0:00:01.97

Peak level 100.0 % Track quality 100.0 % Test CRC FE99EC52 Copy CRC FE99EC52 Accurately ripped (confidence 8) [8369CB34] Copy OK

Track 8

Filename H:\Jazz Music\ONLY JAZZ\Jackie McLean\Jackie McLean - Jackie's Bag - 1959 {RVG Edition}\08. Melonae's Dance.wav

Pre-gap length 0:00:02.97

Peak level 99.4 % Track quality 99.9 % Test CRC 69018D0A Copy CRC 69018D0A Accurately ripped (confidence 8) [FA49304E] Copy OK

Track 9

Filename H:\Jazz Music\ONLY JAZZ\Jackie McLean\Jackie McLean - Jackie's Bag - 1959 {RVG Edition}\09. Medina.wav

Pre-gap length 0:00:02.69

Peak level 95.9 % Track quality 100.0 % Test CRC FE4E9AB9 Copy CRC FE4E9AB9 Accurately ripped (confidence 8) [F4633418] Copy OK

All tracks accurately ripped

No errors occurred

End of status report
 
REM GENRE "Hard Bop"REM DATE 1961REM DISCID 8B0EB509REM COMMENT "ExactAudioCopy v0.99pb5"PERFORMER "Jackie McLean"TITLE "Jackie's Bag"FILE "01. Quadrangle.wav" WAVE TRACK 01 AUDIO TITLE "Quadrangle" PERFORMER "Jackie McLean" INDEX 01 00:00:00 TRACK 02 AUDIO TITLE "Blues Inn" PERFORMER "Jackie McLean" INDEX 00 04:42:69FILE "02. Blues Inn.wav" WAVE INDEX 01 00:00:00 TRACK 03 AUDIO TITLE "Fidel" PERFORMER "Jackie McLean" INDEX 00 09:05:25FILE "03. Fidel.wav" WAVE INDEX 01 00:00:00 TRACK 04 AUDIO TITLE "Appointment in Ghana" PERFORMER "Jackie McLean" INDEX 00 07:08:10FILE "04. Appointment in Ghana.wav" WAVE INDEX 01 00:00:00 TRACK 05 AUDIO TITLE "A Ballad for Doll" PERFORMER "Jackie McLean" INDEX 00 06:57:11FILE "05. A Ballad for Doll.wav" WAVE INDEX 01 00:00:00 TRACK 06 AUDIO TITLE "Isle of Java" PERFORMER "Jackie McLean" INDEX 00 03:16:62FILE "06. Isle of Java.wav" WAVE INDEX 01 00:00:00 TRACK 07 AUDIO TITLE "Street Singer" PERFORMER "Jackie McLean" INDEX 00 07:27:42FILE "07. Street Singer.wav" WAVE INDEX 01 00:00:00 TRACK 08 AUDIO TITLE "Melonae's Dance" PERFORMER "Jackie McLean" INDEX 00 10:15:18FILE "08. Melonae's Dance.wav" WAVE INDEX 01 00:00:00 TRACK 09 AUDIO TITLE "Medina" PERFORMER "Jackie McLean" INDEX 00 06:46:30FILE "09. Medina.wav" WAVE INDEX 01 00:00:00
 
[CUETools log; Date: 29.10.2011 16:18:11; Version: 2.1.1][CTDB TOCID: GlI8z5FR.YEkEwUmi_NXC5t8Lp4-] found. [ CTDBID ] Status [c0ccb594] (12/12) No match[AccurateRip ID: 0015037d-009b4d6a-8b0eb509] found.Track [ CRC ] Status 01 [b37fb4f2] (12/12) Accurately ripped 02 [647d4e62] (00/12) No match but offset 03 [24448e03] (12/12) Accurately ripped 04 [590142ad] (12/12) Accurately ripped 05 [3ec8f50d] (12/12) Accurately ripped 06 [0ca4b41f] (12/12) Accurately ripped 07 [8369cb34] (12/12) Accurately ripped 08 [d6b4a559] (00/12) No match but offset 09 [34633418] (00/12) No match but offset

Track Peak [ CRC32 ] [W/O NULL] -- 100,0 [E439FE62] [8050D359] 01 100,0 [5ED1879E] [67BC0BD9] 02 100,0 [78AB16FF] [C9E0ADDF] 03 100,0 [D03BB74C] [2FBD95E7] 04 97,0 [BD6F993F] [CDBA5D72] 05 78,7 [A03FA577] [2894EEAE] 06 99,9 [43C765C2] [776CCBEA] 07 100,0 [FE99EC52] [994599BE] 08 99,4 [BAE9D1E1] [ACAC345C] 09 95,9 [29CBA85C] [98A3F48A]


Трекер:  [ 28-Янв-2012 11:04 ]

  

Скачать .torrent

Размер .torrent файла 18 KB


Размер: 437 MB
Хэш (hash) релиза: 22273e49c65033c37e203791dab63fb1f45bd557

Еще никто не оставлял запись к записи скачать торрент Jackie McLean - Jackies Bag {RVG Edition} - 1959, FLAC . Будь первым!

!Обратная связь