Скачать через торрент музыку Jackie McLean - A Fickle Sonance {RVG Edition} - 1961, FLAC бесплатно без регистрации torrent

Если у вас наблюдаются проблемы со скриншотами, переходом по ссылками, скачиванием торрентов - проблемы в блокировщике рекламы AdBlock. #хорошегоДня!


Статистика раздачи
Размер:  203 MB   |    Зарегистрирован:  5 лет 8 месяцев   |    .torrent скачан:  37 раз   |   
Раздают:  1  
   
Загрузка...
 
Автор Сообщение

Umakiro

avatar Umakiro


Jackie McLean - A Fickle Sonance {RVG Edition}

Жанр: Post-Bop/Hard Bop
Год выпуска диска: 1961
Производитель диска: UK
Аудио кодек: FLAC
Тип рипа: image+.cue
Битрейт аудио: lossless
Продолжительность: 35:19
Лейбл: Blue Note
Источник: NoNaMe

Трэклист:
1. Five Will Get You Ten
2. Subdued
3. Sundu
4. A Fickle Sonance
5. Enitnerrut
6. Lost

Музыканты:
Tommy Turrentine, trumpet
Jackie McLean, alto sax
Sonny Clark, piano
Butch Warren, bass
Billy Higgins, drums

Originally recorded on October 26, 1961 at the Van Gelder Studio, Englewood Cliffs, New Jersey
Remastered in 2000 by Rudy Van Gelder
 
Exact Audio Copy V0.99 prebeta 3 from 28. July 2007

EAC extraction logfile from 28. August 2009, 22:21

Jackie McLean / A Fickle Sonance

Used drive : HL-DT-STDVD-RAM GSA-H55N Adapter: 0 ID: 0

Read mode : SecureUtilize accurate stream : YesDefeat audio cache : YesMake use of C2 pointers : No

Read offset correction : 102Overread into Lead-In and Lead-Out : NoFill up missing offset samples with silence : YesDelete leading and trailing silent blocks : NoNull samples used in CRC calculations : NoUsed interface : Installed external ASPI interface

Used output format : User Defined EncoderSelected bitrate : 768 kBit/sQuality : HighAdd ID3 tag : NoCommand line compressor : C:\Program Files\Exact Audio Copy\FLAC\FLAC.EXEAdditional command line options : -6 -V -T "ARTIST=%a" -T "TITLE=%t" -T "ALBUM=%g" -T "DATE=%y" -T "TRACKNUMBER=%n" -T "GENRE=%m" -T "COMMENT=%e" %s -o %d

TOC of the extracted CD

Track | Start | Length | Start sector | End sector --------------------------------------------------------- 1 | 0:00.00 | 7:06.43 | 0 | 31992 2 | 7:06.43 | 5:54.01 | 31993 | 58543 3 | 13:00.44 | 4:54.67 | 58544 | 80660 4 | 17:55.36 | 6:49.41 | 80661 | 111376 5 | 24:45.02 | 5:47.73 | 111377 | 137474 6 | 30:33.00 | 4:46.70 | 137475 | 158994

Range status and errors

Selected range

Filename C:\Users\Миша\Documents\Jackie McLean - A Fickle Sonance\Jackie McLean - A Fickle Sonance.wav

Peak level 97.9 % Range quality 100.0 % Copy CRC F5A8ECD8 Copy OK

No errors occurred

AccurateRip summary

Track 1 cannot be verified as accurate (confidence 7) [C6C96E89], AccurateRip returned [429A6B0B]Track 2 cannot be verified as accurate (confidence 8) [B04AFE6B], AccurateRip returned [0D0124A1]Track 3 cannot be verified as accurate (confidence 8) [2638893E], AccurateRip returned [F37E863D]Track 4 cannot be verified as accurate (confidence 8) [BB08B67B], AccurateRip returned [439C9B06]Track 5 cannot be verified as accurate (confidence 8) [0A31C90F], AccurateRip returned [B1459C66]Track 6 cannot be verified as accurate (confidence 8) [CDC1E853], AccurateRip returned [6A5F67DD]

No tracks could be verified as accurateYou may have a different pressing from the one(s) in the database

End of status report
 
AUDIOCHECKER v1.2 - by Dester - opdester@freemail.hu~~~~~~~~~~~~~~~~~

1 -===- E:\Up-Down\Jackie McLean - A Fickle Sonance\Jackie McLean - A Fickle Sonance.flac Extracted successfully Conclusion: This track looks like CDDA with probability 100%


Трекер:  [ 28-Янв-2012 11:03 ]

  

Скачать .torrent

Размер .torrent файла 16 KB


Размер: 203 MB
Хэш (hash) релиза: b7ffcd13c5238a36cf8493559ae5e5571abfcbc4

Еще никто не оставлял запись к записи скачать торрент Jackie McLean - A Fickle Sonance {RVG Edition} - 1961, FLAC . Будь первым!

!Обратная связь