Скачать через торрент музыку Jackie McLean - New And Old Gospel {RVG Edition} - 1967, APE бесплатно без регистрации torrent

Если у вас наблюдаются проблемы со скриншотами, переходом по ссылками, скачиванием торрентов - проблемы в блокировщике рекламы AdBlock. #хорошегоДня!


Статистика раздачи
Размер:  278 MB   |    Зарегистрирован:  5 лет 8 месяцев   |    .torrent скачан:  25 раз   |   
Раздают:  1  
   
Загрузка...
 
Автор Сообщение

Umakiro

avatar Umakiro


Jackie McLean - New And Old Gospel {RVG Edition}

Жанр: Post-Bop/Avant-Garde Jazz
Год выпуска диска: 1967
Производитель диска: EU
Аудио кодек: APE
Тип рипа: image+.cue
Битрейт аудио: lossless
Продолжительность: 41:34
Лейбл: Blue Note
Источник: собственный рип, full scan 300dpi

Трэклист:
1. Lifeline
- A. Offering
- B. Midway
- C. Vernzone
- D. The Inevitable End
2. Old Gospel
3. Strange as It Seems

Музыканты:
Ornette Coleman, trumpet
Jackie McLean, alto sax
Lamont Johnson, piano
Scotty Holt, bass
Billy Higgins, drums

Originally recorded on March 24, 1967 at the Van Gelder Studio, Englewood Cliffs, New Jersey
Remastered in 2006 by Rudy Van Gelder
 
Exact Audio Copy V0.99 prebeta 4 from 23. January 2008

Отчёт EAC об извлечении, выполненном 23. мая 2010, 22:46

Jackie McLean / New and Old Gospel

Дисковод: Optiarc DVD RW AD-7200A Adapter: 3 ID: 1

Режим чтения : ДостоверностьИспользование точного потока : ДаОтключение кэша аудио : ДаИспользование указателей C2 : Нет

Коррекция смещения при чтении : 48Способность читать области Lead-in и Lead-out : НетЗаполнение пропущенных сэмплов тишиной : ДаУдаление блоков с тишиной в начале и конце : НетПри вычислениях CRC использовались нулевые сэмплы : ДаИнтерфейс : Установленный внешний ASPI-интерфейс

Выходной формат : Внутренние WAV-операцииФормат сэмплов : 44.100 Гц; 16 бит; стерео

TOC извлечённого CD

Трек | Старт | Длительность | Начальный сектор | Конечный сектор --------------------------------------------------------------------- 1 | 0:00.00 | 21:40.53 | 0 | 97552 2 | 21:40.53 | 10:42.62 | 97553 | 145764 3 | 32:23.40 | 9:10.40 | 145765 | 187054

Характеристики диапазона извлечения и сообщения об ошибках

Выбранный диапазон

Имя файла E:\Up-Down\Jackie McLean - New and Old Gospel\Jackie McLean - New and Old Gospel.wav

Пиковый уровень 97.9 % Качество диапазона 100.0 % CRC копии 015622AF Копирование... OK

Ошибок не произошло

AccurateRip: сводка

Трек 1 точное извлечение (доверие 4) [F98EDA9D]Трек 2 точное извлечение (доверие 4) [D7ACE124]Трек 3 точное извлечение (доверие 4) [A63A5234]

Все треки извлечены точно

Конец отчёта


Трекер:  [ 28-Янв-2012 11:02 ]

  

Скачать .torrent

Размер .torrent файла 12 KB


Размер: 278 MB
Хэш (hash) релиза: 2802ae18994411fc6d6fe14f2d3bd8d2613addfb

Еще никто не оставлял запись к записи скачать торрент Jackie McLean - New And Old Gospel {RVG Edition} - 1967, APE . Будь первым!

!Обратная связь