Скачать через торрент музыку Jackie McLean - Swing, Swang, Swingin бесплатно без регистрации torrent

Если у вас наблюдаются проблемы со скриншотами, переходом по ссылками, скачиванием торрентов - проблемы в блокировщике рекламы AdBlock. #хорошегоДня!


Статистика раздачи
Размер:  244 MB   |    Зарегистрирован:  5 лет 8 месяцев   |    .torrent скачан:  26 раз   |   
Раздают:  1  
   
Загрузка...
 
Автор Сообщение

Umakiro

avatar Umakiro


Jackie McLean - Swing, Swang, Swingin'

Жанр: Hard Bop, Post-Bop
Год выпуска диска: 1998
Производитель диска: Japan Blue Note RVG Edition (TOCJ-7007)
Аудио кодек: FLAC
Тип рипа: tracks+.cue
Битрейт аудио: lossless
Продолжительность: 38:17

Трэклист:
01. What's New? (Haggart-Burke)
02. Let's Face the Music and Dance (Irving Berlin)
03. Stablemates (Benny Golson)
04. I Remember You (Mercer-Schertzinger)
05. I Love You (Cole Porter)
06. I'll Take Romance (Hammerstein II-Oakland)
07. 116th and Lenox (Jackie McLean)

Personnel:
Jackie McLean - alto sax
Walter Bishop Jr. - piano
Jimmy Garrison - bass
Art Taylor - drums

Recorded on October 2, 1959 at the Van Gelder Studio, Englewood Cliffs, New Jersey.
One of Jackie McLean's earliest Blue Notes, Swing, Swang, Swingin' parts company with the vast majority of his output for the label by concentrating chiefly on standards (only one of the seven tunes is a McLean original). Perhaps as a result of Blue Note's more prepared, professional approach to recording sessions, McLean sounds invigorated here, catapulting each melody forward before launching into a series of impassioned improvisations. Not that every track is a mind-blowing meltdown -- McLean's playing always fits the mood of the song -- but his total commitment to the material is evident throughout the album. He's also very much the focal point of the quartet, which includes pianist Walter Bishop, bassist Jimmy Garrison, and drummer Art Taylor. McLean's unique, cutting tone -- always threatening to go ever so slightly out of tune -- lends a particular urgency to his melody statements and extended notes, highlighted by an intense and swinging version of Cole Porter's "I Love You" and an exuberant take on Irving Berlin's "Let's Face the Music and Dance." Though Bishop and Taylor are less well-known than their compatriots, they offer active support that helps push McLean even more. Swing, Swang, Swingin' may not be as groundbreaking as McLean's more modernist work, but it's a solid session from an artist just beginning an incredible hot streak.
 
Exact Audio Copy V0.99 prebeta 4 from 23. January 2008

EAC extraction logfile from 6. March 2009, 14:28

Jackie McLean / Swing, Swang, Swingin'

Used drive : TSSTcorpCDDVDW SH-S223Q Adapter: 2 ID: 1

Read mode : SecureUtilize accurate stream : YesDefeat audio cache : YesMake use of C2 pointers : No

Read offset correction : 6Overread into Lead-In and Lead-Out : NoFill up missing offset samples with silence : YesDelete leading and trailing silent blocks : NoNull samples used in CRC calculations : YesUsed interface : Installed external ASPI interfaceGap handling : Appended to previous track

Used output format : User Defined EncoderSelected bitrate : 320 kBit/sQuality : HighAdd ID3 tag : NoCommand line compressor : C:\Program Files (x86)\Exact Audio Copy\flac.exeAdditional command line options : -8 -V -T "ARTIST=%a" -T "TITLE=%t" -T "ALBUM=%g" -T "DATE=%y" -T "TRACKNUMBER=%n" -T "GENRE=%m" -T "COMMENT=EAC FLAC -8" %s

TOC of the extracted CD

Track | Start | Length | Start sector | End sector --------------------------------------------------------- 1 | 0:00.00 | 5:19.00 | 0 | 23924 2 | 5:19.00 | 4:51.00 | 23925 | 45749 3 | 10:10.00 | 5:48.00 | 45750 | 71849 4 | 15:58.00 | 5:17.00 | 71850 | 95624 5 | 21:15.00 | 5:10.00 | 95625 | 118874 6 | 26:25.00 | 5:50.00 | 118875 | 145124 7 | 32:15.00 | 6:02.30 | 145125 | 172304

Track 1

Filename C:\Audio\Jackie McLean - Swing Swang Swingin' (1959) [FLAC] {2003 Japan RVG}\01 - What's New.wav

Pre-gap length 0:00:02.00

Peak level 99.8 % Track quality 100.0 % Test CRC 5F574857 Copy CRC 5F574857 Track not present in AccurateRip database Copy OK

Track 2

Filename C:\Audio\Jackie McLean - Swing Swang Swingin' (1959) [FLAC] {2003 Japan RVG}\02 - Let's Face The Music And Dance.wav

Pre-gap length 0:00:02.30

Peak level 86.0 % Track quality 100.0 % Test CRC 8ACE465C Copy CRC 8ACE465C Track not present in AccurateRip database Copy OK

Track 3

Filename C:\Audio\Jackie McLean - Swing Swang Swingin' (1959) [FLAC] {2003 Japan RVG}\03 - Stablemates.wav

Pre-gap length 0:00:02.26

Peak level 99.8 % Track quality 99.9 % Test CRC F5181816 Copy CRC F5181816 Track not present in AccurateRip database Copy OK

Track 4

Filename C:\Audio\Jackie McLean - Swing Swang Swingin' (1959) [FLAC] {2003 Japan RVG}\04 - I Remember You.wav

Pre-gap length 0:00:02.60

Peak level 99.8 % Track quality 100.0 % Test CRC 02B0889B Copy CRC 02B0889B Track not present in AccurateRip database Copy OK

Track 5

Filename C:\Audio\Jackie McLean - Swing Swang Swingin' (1959) [FLAC] {2003 Japan RVG}\05 - I Love You.wav

Pre-gap length 0:00:02.60

Peak level 89.5 % Track quality 100.0 % Test CRC 1B64B47E Copy CRC 1B64B47E Track not present in AccurateRip database Copy OK

Track 6

Filename C:\Audio\Jackie McLean - Swing Swang Swingin' (1959) [FLAC] {2003 Japan RVG}\06 - I'll Take Romance.wav

Pre-gap length 0:00:01.57

Peak level 88.1 % Track quality 99.9 % Test CRC 4D64EA8D Copy CRC 4D64EA8D Track not present in AccurateRip database Copy OK

Track 7

Filename C:\Audio\Jackie McLean - Swing Swang Swingin' (1959) [FLAC] {2003 Japan RVG}\07 - 116th And Lenox.wav

Pre-gap length 0:00:03.57

Peak level 99.8 % Track quality 100.0 % Test CRC 332EEA99 Copy CRC 332EEA99 Track not present in AccurateRip database Copy OK

None of the tracks are present in the AccurateRip database

No errors occurred

End of status report
Обложки есть. Благодарности за релиз - Mazeppa (hqshare).

Трекер:  [ 28-Янв-2012 11:02 ]

  

Скачать .torrent

Размер .torrent файла 20 KB


Размер: 244 MB
Хэш (hash) релиза: 05d6c568302e972c4e66d5e114aeaba62dc8a93c

Еще никто не оставлял запись к записи скачать торрент Jackie McLean - Swing, Swang, Swingin . Будь первым!

!Обратная связь