Скачать через торрент музыку Jackie McLean - Demons Dance {RVG Edition} - 1967, FLAC бесплатно без регистрации torrent

Если у вас наблюдаются проблемы со скриншотами, переходом по ссылками, скачиванием торрентов - проблемы в блокировщике рекламы AdBlock. #хорошегоДня!


Статистика раздачи
Размер:  247 MB   |    Зарегистрирован:  5 лет 8 месяцев   |    .torrent скачан:  28 раз   |   
Раздают:  1  
   
Загрузка...
 
Автор Сообщение

Umakiro

avatar Umakiro


Jackie McLean - Demon's Dance {RVG Edition}

Жанр: Jazz, Post-Bop
Год выпуска диска: 1967
Производитель диска: USA
Аудио кодек: FLAC
Тип рипа: image+.cue
Битрейт аудио: lossless
Продолжительность: 36:27
Лейбл: Blue Note

Трэклист:
1 Demon's Dance
2 Toyland
3 Boo Ann's Grand
4 Sweet Love of Mine
5 Floogeh
6 Message from Trane

Музыканты:
Woody Shaw, trumpet
Jackie McLean, alto sax
Lamont Johnson, piano
Scott Holt, bass
Jack DeJohnette, drums
Exact Audio Copy V0.99 prebeta 4 from 23. January 2008

Отчёт EAC об извлечении, выполненном 3. февраля 2009, 23:02

Jackie McLean / Demon's Dance

Дисковод: TSSTcorpCDDVDW SH-S202J Adapter: 3 ID: 0

Режим чтения : Достоверность
Использование точного потока : Да
Отключение кэша аудио : Да
Использование указателей C2 : Нет

Коррекция смещения при чтении : 6
Способность читать области Lead-in и Lead-out : Нет
Заполнение пропущенных сэмплов тишиной : Да
Удаление блоков с тишиной в начале и конце : Нет
При вычислениях CRC использовались нулевые сэмплы : Да
Интерфейс : Установленный внешний ASPI-интерфейс

Выходной формат : Пользовательский кодировщик
Выбранный битрейт : 768 kBit/s
Качество : Высокий
Добавление ID3-тэга : Нет
Утилита сжатия : C:\Program Files\Exact Audio Copy\FLAC\FLAC.EXE
Дополнительные параметры : -6 -V -T "ARTIST=%a" -T "TITLE=%t" -T "ALBUM=%g" -T "DATE=%y" -T "TRACKNUMBER=%n" -T "GENRE=%m" -T "COMMENT=%e" %s -o %d

TOC извлечённого CD

Трек | Старт | Длительность | Начальный сектор | Конечный сектор
---------------------------------------------------------------------
1 | 0:00.00 | 7:09.03 | 0 | 32177
2 | 7:09.03 | 5:23.72 | 32178 | 56474
3 | 12:33.00 | 6:57.06 | 56475 | 87755
4 | 19:30.06 | 6:04.62 | 87756 | 115117
5 | 25:34.68 | 5:23.00 | 115118 | 139342
6 | 30:57.68 | 5:29.51 | 139343 | 164068

Характеристики диапазона извлечения и сообщения об ошибках

Выбранный диапазон

Имя файла D:\My Music\ext\Архивы\Jackie McLean - Demon's Dance\Jackie McLean - Demon's Dance.wav

Пиковый уровень 97.9 %
Качество диапазона 100.0 %
CRC копии 5761DDF9
Копирование... OK

Ошибок не произошло

Конец отчёта
Доп. информация:
Originally recorded live on December 22, 1967 at the Van Gelder Studio, Englewood Cliffs, New Jersey
Remastered in 2006 by Rudy Van Gelder

Трекер:  [ 28-Янв-2012 11:01 ]

  

Скачать .torrent

Размер .torrent файла 20 KB


Размер: 247 MB
Хэш (hash) релиза: 11487366372b390f6a3b4bc430a22a638d7824b0

Еще никто не оставлял запись к записи скачать торрент Jackie McLean - Demons Dance {RVG Edition} - 1967, FLAC . Будь первым!

!Обратная связь