Скачать через торрент музыку Horace Silver Quintet - The Tokyo Blues - {RVG Edition} - 1962, FLAC бесплатно без регистрации torrent

Если у вас наблюдаются проблемы со скриншотами, переходом по ссылками, скачиванием торрентов - проблемы в блокировщике рекламы AdBlock. #хорошегоДня!


Статистика раздачи
Размер:  240 MB   |    Зарегистрирован:  5 лет 8 месяцев   |    .torrent скачан:  36 раз   |   
Раздают:  1  
   
Загрузка...
 
Автор Сообщение

Umakiro

avatar Umakiro


Horace Silver Quintet - The Tokyo Blues {RVG Edition}

Жанр: jazz, hard bop
Год выпуска диска: 1962
Производитель диска: USA
Аудио кодек: FLAC
Тип рипа: tracks+.cue
Битрейт аудио: lossless
Продолжительность: 39:58
Лейбл: Blue Note Records (RVG Edition)
Источник: собственный рип, full scans incl. 300dpi

Трэклист:
1. Too Much Sake 6:45
2. Sayonara Blues 12:12
3. The Tokyo Blues 7:39
4. Cherry Blossom 6:11 (Ronell Bright)
5. Ah! So 7:05


(All Compositions by Horace Silver, unless otherwise noted)

Доп. информация:

Personnel :

Gene Taylor - Bass
John Harris, JR. - Drums
Junior Cook - Tenor Sax
Blue Mitchell - Trumpet
Horace Silver - Piano


Produced by Alfred Lion

Originally recorded on July 13 (#2 & 3) and 14 (#1, 4, 5), 1962
at the Van Gelder Studio, Englewood Cliffs, New Jersey

Remastered in 2008 by Rudy Van Gelder

All transfers from analog to digital made at 24-bit resolution
Reissue produced by Michael Cuscuna

Originally issued in 1962 on Blue Note BST 84110
Exact Audio Copy V0.99 prebeta 4 from 23. January 2008

EAC extraction logfile from 17. August 2009, 7:36

Horace Silver Quintet / The Tokyo Blues

Used drive : HL-DT-STDVDRAM GH22NS40 Adapter: 2 ID: 0

Read mode : Secure
Utilize accurate stream : Yes
Defeat audio cache : Yes
Make use of C2 pointers : No

Read offset correction : 667
Overread into Lead-In and Lead-Out : No
Fill up missing offset samples with silence : Yes
Delete leading and trailing silent blocks : No
Null samples used in CRC calculations : Yes
Used interface : Native Win32 interface for Win NT & 2000
Gap handling : Appended to previous track

Used output format : User Defined Encoder
Selected bitrate : 128 kBit/s
Quality : High
Add ID3 tag : No
Command line compressor : C:\Program Files (x86)\Exact Audio Copy\Flac\flac.exe
Additional command line options : -8 -V -T "ARTIST=%a" -T "TITLE=%t" -T "ALBUM=%g" -T "DATE=%y" -T "TRACKNUMBER=%n" -T "GENRE=%m" -T "COMMENT=EAC FLAC -8" %s

TOC of the extracted CD

Track | Start | Length | Start sector | End sector
---------------------------------------------------------
1 | 0:00.00 | 6:47.49 | 0 | 30573
2 | 6:47.49 | 12:14.11 | 30574 | 85634
3 | 19:01.60 | 7:39.72 | 85635 | 120131
4 | 26:41.57 | 6:11.55 | 120132 | 148011
5 | 32:53.37 | 7:07.42 | 148012 | 180078

Track 1

Filename E:\RIP\Horace Silver Quintet - The Tokyo Blues - 1962 {RVG Edition}\01 - Too Much Sake.wav

Pre-gap length 0:00:02.00

Peak level 91.9 %
Track quality 100.0 %
Test CRC 235F6AF0
Copy CRC 235F6AF0
Accurately ripped (confidence 3) [9D6CEBD3]
Copy OK

Track 2

Filename E:\RIP\Horace Silver Quintet - The Tokyo Blues - 1962 {RVG Edition}\02 - Sayanora Blues.wav

Pre-gap length 0:00:03.68

Peak level 90.2 %
Track quality 100.0 %
Test CRC BD29230A
Copy CRC BD29230A
Accurately ripped (confidence 3) [D205D184]
Copy OK

Track 3

Filename E:\RIP\Horace Silver Quintet - The Tokyo Blues - 1962 {RVG Edition}\03 - The Tokyo Blues.wav

Pre-gap length 0:00:03.92

Peak level 90.4 %
Track quality 100.0 %
Test CRC 10243B74
Copy CRC 10243B74
Accurately ripped (confidence 3) [A4FDDBCE]
Copy OK

Track 4

Filename E:\RIP\Horace Silver Quintet - The Tokyo Blues - 1962 {RVG Edition}\04 - Cherry Blossom.wav

Pre-gap length 0:00:03.08

Peak level 89.4 %
Track quality 100.0 %
Test CRC 5E14931B
Copy CRC 5E14931B
Accurately ripped (confidence 3) [A2C13E95]
Copy OK

Track 5

Filename E:\RIP\Horace Silver Quintet - The Tokyo Blues - 1962 {RVG Edition}\05 - Ah! So.wav

Pre-gap length 0:00:02.88

Peak level 92.3 %
Track quality 100.0 %
Test CRC 920CE3A5
Copy CRC 920CE3A5
Accurately ripped (confidence 3) [5724B030]
Copy OK

All tracks accurately ripped

No errors occurred

End of status report


Трекер:  [ 28-Янв-2012 11:00 ]

  

Скачать .torrent

Размер .torrent файла 20 KB


Размер: 240 MB
Хэш (hash) релиза: ba0facddb9055fa3599dbeecb53d67eb22a2ac73

Еще никто не оставлял запись к записи скачать торрент Horace Silver Quintet - The Tokyo Blues - {RVG Edition} - 1962, FLAC . Будь первым!

!Обратная связь