Скачать через торрент музыку Horace Silver - Blowin the Blues Awa бесплатно без регистрации torrent

Если у вас наблюдаются проблемы со скриншотами, переходом по ссылками, скачиванием торрентов - проблемы в блокировщике рекламы AdBlock. #хорошегоДня!


Статистика раздачи
Размер:  282 MB   |    Зарегистрирован:  5 лет 8 месяцев   |    .torrent скачан:  31 раз   |   
Раздают:  1  
   
Загрузка...
 
Автор Сообщение

Umakiro

avatar Umakiro


Horace Silver - Blowin' the Blues Away(RVG Edition)

Жанр: Soul-Jazz, Hard Bop
Год выпуска диска: 1959
Производитель диска: USA
Аудио кодек: FLAC
Тип рипа: tracks+.cue
Битрейт аудио: lossless
Продолжительность: 0:42:55
Трэклист:
1. Horace Silver - Blowin' the Blues Away (4:44)
2. Horace Silver - The St. Vitus Dance (4:09)
3. Horace Silver - Break City (4:57)
4. Horace Silver - Peace (6:02)
5. Horace Silver - Sister Sadie (6:19)
6. Horace Silver - The Baghdad Blues (4:53)
7. Horace Silver - Melancholy Mood (7:08)
8. Horace Silver - How Did it Happen (4:43)
Доп. информация:
Allmusic об альбоме
EAC extraction logfile from 20. April 2006, 14:52 for CD
Horace Silver / Blowin' the Blues Away (1999 Remaster)

Used drive : PLEXTOR DVDR PX-740A Adapter: 1 ID: 0
Read mode : Secure with NO C2, accurate stream, disable cache
Combined read/write offset correction : 618
Overread into Lead-In and Lead-Out : No

Used output format : C:\Program Files\FLAC\flac.exe (User Defined Encoder)
320 kBit/s
Additional command line options : -5 -V -T "artist=%a" -T "title=%t" -T "album=%g" -T "date=%y" -T "tracknumber=%n" -T "genre=%m" %s

Other options :
Fill up missing offset samples with silence : Yes
Delete leading and trailing silent blocks : No
Native Win32 interface for Win NT & 2000

Track 1
Filename D:\Downloads\Horace Silver - Blowin' the Blues Away (RVG Edition)\01 - Blowin' the Blues Away.wav

Peak level 97.9 %
Track quality 100.0 %
Test CRC F471E9BD
Copy CRC F471E9BD
Copy OK

Track 2
Filename D:\Downloads\Horace Silver - Blowin' the Blues Away (RVG Edition)\02 - The St. Vitus Dance.wav

Peak level 85.5 %
Track quality 100.0 %
Test CRC 639668E6
Copy CRC 639668E6
Copy OK

Track 3
Filename D:\Downloads\Horace Silver - Blowin' the Blues Away (RVG Edition)\03 - Break City.wav

Peak level 97.9 %
Track quality 100.0 %
Test CRC 4400BEFA
Copy CRC 4400BEFA
Copy OK

Track 4
Filename D:\Downloads\Horace Silver - Blowin' the Blues Away (RVG Edition)\04 - Peace.wav

Peak level 96.1 %
Track quality 99.9 %
Test CRC A3A40A2B
Copy CRC A3A40A2B
Copy OK

Track 5
Filename D:\Downloads\Horace Silver - Blowin' the Blues Away (RVG Edition)\05 - Sister Sadie.wav

Peak level 97.9 %
Track quality 100.0 %
Test CRC 16F5D55C
Copy CRC 16F5D55C
Copy OK

Track 6
Filename D:\Downloads\Horace Silver - Blowin' the Blues Away (RVG Edition)\06 - The Baghdad Blues.wav

Peak level 97.9 %
Track quality 99.9 %
Test CRC 0D03A00F
Copy CRC 0D03A00F
Copy OK

Track 7
Filename D:\Downloads\Horace Silver - Blowin' the Blues Away (RVG Edition)\07 - Melancholy Mood.wav

Peak level 89.8 %
Track quality 100.0 %
Test CRC F7B2DF92
Copy CRC F7B2DF92
Copy OK

Track 8
Filename D:\Downloads\Horace Silver - Blowin' the Blues Away (RVG Edition)\08 - How Did it Happen.wav

Peak level 97.9 %
Track quality 100.0 %
Test CRC C56E40BA
Copy CRC C56E40BA
Copy OK

No errors occured

End of status report
AUDIOCHECKER v2.0 beta (build 457) - by Dester - opdester@freemail.hu
~~~~~~~~~~~~~~~~~~~~~~~~~~~~~~~~~~
-=== DO NOT EDIT THIS FILE! ===-

Path: ...\Horace Silver - Blowin' the Blues Away(RVG Edition)(1959)

1 -=- 01 - Blowin' the Blues Away.flac -=- CDDA (100%)
2 -=- 02 - The St. Vitus Dance.flac -=- CDDA (100%)
3 -=- 03 - Break City.flac -=- CDDA (100%)
4 -=- 04 - Peace.flac -=- CDDA (100%)
5 -=- 05 - Sister Sadie.flac -=- CDDA (100%)
6 -=- 06 - The Baghdad Blues.flac -=- CDDA (100%)
7 -=- 07 - Melancholy Mood.flac -=- CDDA (100%)
8 -=- 08 - How Did it Happen.flac -=- CDDA (100%)

Summary 100,00% CDDA

245651924


Трекер:  [ 28-Янв-2012 10:59 ]

  

Скачать .torrent

Размер .torrent файла 24 KB


Размер: 282 MB
Хэш (hash) релиза: 9335111362d4a3ea4f0a07c737488bd029b39e66

Еще никто не оставлял запись к записи скачать торрент Horace Silver - Blowin the Blues Awa . Будь первым!

!Обратная связь