Скачать через торрент музыку Horace Silver - Horace-Scope {RVG Edition} - 2006, FLAC бесплатно без регистрации torrent

Если у вас наблюдаются проблемы со скриншотами, переходом по ссылками, скачиванием торрентов - проблемы в блокировщике рекламы AdBlock. #хорошегоДня!


Статистика раздачи
Размер:  301 MB   |    Зарегистрирован:  5 лет 8 месяцев   |    .torrent скачан:  25 раз   |   
Раздают:  1  
   
Загрузка...
 
Автор Сообщение

Umakiro

avatar Umakiro


Horace Silver - Horace-Scope {RVG Edition}

Лейбл: Blue Note
Жанр: Jazz
Год выпуска: 1960/2006
Формат: FLAC (tracks)
Битрейт аудио: lossless
Продолжительность: 39:26 min

Трэклист:

1. Strollin' (Silver) 4:59
2. Where You At? (Silver) 5:37
3. Without You (Newey) 4:50
4. Horace-Scope (Silver) 4:43
5. Yeah! (Silver) 6:28
6. Me and My Baby (Silver) 5:58
7. Nica's Dream (Silver) 6:48

Состав:

Blue Mitchell (trumpet)
Junior Cook (tenor sax)
Horace Silver (piano)
Gene Taylor (bass)
Roy Brooks (drums)

Доп. информация: Третий альбом The Horace Silver Quintet, записан 8-9 июля 1960 года Rudi van Gelder на Blue Note, им же и оцифрован 45 лет спустя. Рип не мой, взят из сети, вердикт Audiochecker v1.2: все файлы CDDA с вероятностью 99 или 100%
EAC extraction logfile from 26. March 2006, 12:35 for CD
The Horace Silver Quintet / Horace-Scope (The RVG Edition 2006)

Used drive : PLEXTOR CD-R PX-W4824A Adapter: 1 ID: 0
Read mode : Secure with NO C2, accurate stream, disable cache
Read offset correction : 98
Overread into Lead-In and Lead-Out : Yes

Used output format : C:\Programme\FLAC\flac.exe (User Defined Encoder)
320 kBit/s
Additional command line options : -V -8 -T "artist=%a" -T "title=%t" -T "album=%g" -T "date=%y" -T "tracknumber=%n" -T "genre=%m" -T "comment=EAC 095b3 Secure Mode / Flac 1.1.2 -8" %s

Other options :
Fill up missing offset samples with silence : Yes
Delete leading and trailing silent blocks : No
Installed external ASPI interface

Track 1
Filename E:\The Horace Silver Quintet - Horace-Scope (1960) [FLAC] (The RVG Edition 2006)\01 - Strollin'.wav

Pre-gap length 0:00:02.00

Peak level 97.9 %
Track quality 100.0 %
Test CRC 281F28AC
Copy CRC 281F28AC
Copy OK

Track 2
Filename E:\The Horace Silver Quintet - Horace-Scope (1960) [FLAC] (The RVG Edition 2006)\02 - Where You At .wav

Pre-gap length 0:00:02.72

Peak level 97.9 %
Track quality 100.0 %
Test CRC 824C8256
Copy CRC 824C8256
Copy OK

Track 3
Filename E:\The Horace Silver Quintet - Horace-Scope (1960) [FLAC] (The RVG Edition 2006)\03 - Without You.wav

Pre-gap length 0:00:01.97

Peak level 97.9 %
Track quality 99.9 %
Test CRC 0E0B95C1
Copy CRC 0E0B95C1
Copy OK

Track 4
Filename E:\The Horace Silver Quintet - Horace-Scope (1960) [FLAC] (The RVG Edition 2006)\04 - Horace-Scope.wav

Pre-gap length 0:00:02.81

Peak level 97.9 %
Track quality 99.9 %
Test CRC 3CA749E5
Copy CRC 3CA749E5
Copy OK

Track 5
Filename E:\The Horace Silver Quintet - Horace-Scope (1960) [FLAC] (The RVG Edition 2006)\05 - Yeah!.wav

Pre-gap length 0:00:03.30

Peak level 97.9 %
Track quality 99.9 %
Test CRC 2B566DB9
Copy CRC 2B566DB9
Copy OK

Track 6
Filename E:\The Horace Silver Quintet - Horace-Scope (1960) [FLAC] (The RVG Edition 2006)\06 - Me And My Baby.wav

Pre-gap length 0:00:02.84

Peak level 97.9 %
Track quality 100.0 %
Test CRC 999A9475
Copy CRC 999A9475
Copy OK

Track 7
Filename E:\The Horace Silver Quintet - Horace-Scope (1960) [FLAC] (The RVG Edition 2006)\07 - Nica's Dream.wav

Pre-gap length 0:00:03.02

Peak level 97.9 %
Track quality 100.0 %
Test CRC EB379D7E
Copy CRC EB379D7E
Copy OK

No errors occured

End of status report


Трекер:  [ 28-Янв-2012 10:58 ]

  

Скачать .torrent

Размер .torrent файла 13 KB


Размер: 301 MB
Хэш (hash) релиза: 09bd8a27abbcab23d39c48f6c7db2161c0df6871

Еще никто не оставлял запись к записи скачать торрент Horace Silver - Horace-Scope {RVG Edition} - 2006, FLAC . Будь первым!

!Обратная связь