Скачать через торрент музыку Horace Silver Quintet - The Stylings Of Silver - {RVG Edition} - 1957, APE бесплатно без регистрации torrent

Если у вас наблюдаются проблемы со скриншотами, переходом по ссылками, скачиванием торрентов - проблемы в блокировщике рекламы AdBlock. #хорошегоДня!


Статистика раздачи
Размер:  291 MB   |    Зарегистрирован:  5 лет 8 месяцев   |    .torrent скачан:  25 раз   |   
Раздают:  1  
   
Загрузка...
 
Автор Сообщение

Umakiro

avatar Umakiro


Horace Silver Quintet - The Stylings Of Silver - {RVG Edition}

Страна: USA / Blue Note Records
Жанр: Jazz/Hard-bop
Год выпуска: 1957
Формат: APE (image + .cue)
Битрейт аудио: lossless
Продолжительность: 38:59

Трэклист:
1. No Smokin'
2. The Back Beat
3. Soulville
4. Home Cookin'
5. Metamorphosis
6. My One And Only Love

Доп. информация:
Personnel: Horace Silver (piano); Hank Mobley (tenor saxophone); Art Farmer (trumpet); Teddy Kotick (bass); Louis Hayes (drums).
Recorded at Van Gelder Studio, Hackensack, New Jersey on May 8, 1957. Orifinally released on Bluenote (1562).
Includes liner notes by Bob Blumenthal.
Digitally remastered by Rudy Van Gelder.
This is part of Blue Note's RVG series.
Exact Audio Copy V0.99 prebeta 2 from 28. July 2007

Отчёт EAC об извлечении, выполненном 12. ноября 2007, 20:44

Horace Silver Quintet / The Stylings Of Silver

Дисковод: HL-DT-STDVDRAM GSA-4167B Adapter: 0 ID: 0

Режим чтения : Достоверность
Использование точного потока : Да
Отключение кэша аудио : Да
Использование указателей C2 : Нет

Коррекция смещения при чтении : 667
Способность читать области Lead-in и Lead-out : Нет
Заполнение пропущенных сэмплов тишиной : Да
Удаление блоков с тишиной в начале и конце : Нет
При вычислениях CRC использовались нулевые сэмплы : Да
Интерфейс : Установленный внешний ASPI-интерфейс

Выходной формат : Внутренние WAV-операции
Формат сэмплов : 44.100 Гц; 16 бит; стерео

TOC извлечённого CD

Трек | Старт | Длительность | Начальный сектор | Конечный сектор
---------------------------------------------------------------------
1 | 0:00.00 | 5:33.52 | 0 | 25026
2 | 5:33.52 | 6:23.10 | 25027 | 53761
3 | 11:56.62 | 6:16.50 | 53762 | 82011
4 | 18:13.37 | 6:28.12 | 82012 | 111123
5 | 24:41.49 | 7:18.22 | 111124 | 143995
6 | 31:59.71 | 6:59.73 | 143996 | 175493

Характеристики диапазона извлечения и сообщения об ошибках

Выбранный диапазон

Имя файла H:\Muzlo\JAZZ\BIG JAZZ\RIPER-CUTTER\Horace Silver Quintet - The Stylings Of Silver - 1957 {RVG Edition}.wav

Пиковый уровень 97.9 %
Качество диапазона 100.0 %
CRC копии 53F7D577
Копирование... OK

Ошибок не произошло

Конец отчёта


Трекер:  [ 28-Янв-2012 10:56 ]

  

Скачать .torrent

Размер .torrent файла 12 KB


Размер: 291 MB
Хэш (hash) релиза: 131adbd47a4ded04fc64054aeeb26abab24fdc4c

Еще никто не оставлял запись к записи скачать торрент Horace Silver Quintet - The Stylings Of Silver - {RVG Edition} - 1957, APE . Будь первым!

!Обратная связь