Скачать через торрент музыку Horace Silver - In Pursuit of the 27th Man {RVG Edition} - 1972, FLAC бесплатно без регистрации torrent

Если у вас наблюдаются проблемы со скриншотами, переходом по ссылками, скачиванием торрентов - проблемы в блокировщике рекламы AdBlock. #хорошегоДня!


Статистика раздачи
Размер:  260 MB   |    Зарегистрирован:  5 лет 8 месяцев   |    .torrent скачан:  28 раз   |   
Раздают:  1  
   
Загрузка...
 
Автор Сообщение

Umakiro

avatar Umakiro


Horace Silver - In Pursuit of the 27th Man {RVG Edition}

Лейбл: Blue Note
Жанр: Jazz
Год выпуска: 1972/2002
Формат: FLAC (tracks)
Битрейт аудио: lossless
Продолжительность: 40:48 min

Трэклист:

1. Liberated Brother (Irvine) 5:23
2. Kathy (Evans, Livingston, Santos) 4:17
3. Gregory Is Here (Silver) 6:21
4. Summer in Central Park (Silver) 4:41
5. Nothin' Can Stop Me Now (Silver) 5:15
6. In Pursuit of the 27th Man (Silver) 9:44
7. Strange Vibes (Silver) 5:02

Состав:

Randy Brecker (trumpet, fluegelhorn) (1,3,5)
Michel Brecker (tenor sax) (1,3,5)
David Friedman (vibes) (2,4,6,7)
Horace Silver (piano)
Bob Cranshow (electric bass)
Mickey Roker (drums)

Доп. информация: А это -- один из лучших альбомов Horace Silver 70-х годов. Записан на двух сессиях 6 октября и 10 ноября 1972 года на Blue Note Rudi van Gelder, им же оцифрован в 2001 году. Рип не мой, взят из сети, вердикт Audiochecker v1.2: все файлы CDDA с вероятностью 100%
EAC extraction logfile from 11. March 2005, 18:05 for CD
Horace Silver / In Pursuit of The 27th Man

Used drive : PLEXTOR DVDR PX-712A Adapter: 1 ID: 0
Read mode : Secure with NO C2, accurate stream, disable cache
Read offset correction : 30
Overread into Lead-In and Lead-Out : Yes

Used output format : Internal WAV Routines
44.100 Hz; 16 Bit; Stereo

Other options :
Fill up missing offset samples with silence : Yes
Delete leading and trailing silent blocks : No
Native Win32 interface for Win NT & 2000

Track 1
Filename C:\Horace Silver - In Pursuit of The 27th Man (1972) [FLAC]\01 - Horace Silver - Liberated Brother.wav

Pre-gap length 0:00:02.00

Peak level 97.9 %
Track quality 100.0 %
Test CRC 5F38A8B9
Copy CRC 5F38A8B9
Copy OK

Track 2
Filename C:\Horace Silver - In Pursuit of The 27th Man (1972) [FLAC]\02 - Horace Silver - Kathy.wav

Pre-gap length 0:00:02.51

Peak level 97.9 %
Track quality 100.0 %
Test CRC ADB583E0
Copy CRC ADB583E0
Copy OK

Track 3
Filename C:\Horace Silver - In Pursuit of The 27th Man (1972) [FLAC]\03 - Horace Silver - Gregory Is Here.wav

Pre-gap length 0:00:02.30

Peak level 97.9 %
Track quality 100.0 %
Test CRC 67AB17BE
Copy CRC 67AB17BE
Copy OK

Track 4
Filename C:\Horace Silver - In Pursuit of The 27th Man (1972) [FLAC]\04 - Horace Silver - Summer In Central Park.wav

Pre-gap length 0:00:03.01

Peak level 97.9 %
Track quality 100.0 %
Test CRC D9F63A3E
Copy CRC D9F63A3E
Copy OK

Track 5
Filename C:\Horace Silver - In Pursuit of The 27th Man (1972) [FLAC]\05 - Horace Silver - Nothin' Can Stop Me Now.wav

Pre-gap length 0:00:03.13

Peak level 97.9 %
Track quality 99.9 %
Test CRC E489408D
Copy CRC E489408D
Copy OK

Track 6
Filename C:\Horace Silver - In Pursuit of The 27th Man (1972) [FLAC]\06 - Horace Silver - In Pursuit Of The 27th Man.wav

Pre-gap length 0:00:02.08

Peak level 97.9 %
Track quality 100.0 %
Test CRC 7A9A24D3
Copy CRC 7A9A24D3
Copy OK

Track 7
Filename C:\Horace Silver - In Pursuit of The 27th Man (1972) [FLAC]\07 - Horace Silver - Strange Vibes.wav

Pre-gap length 0:00:02.25

Peak level 97.9 %
Track quality 100.0 %
Test CRC 4153B658
Copy CRC 4153B658
Copy OK

No errors occured

End of status report


Трекер:  [ 28-Янв-2012 10:56 ]

  

Скачать .torrent

Размер .torrent файла 12 KB


Размер: 260 MB
Хэш (hash) релиза: 7ae7dfe0439990d610db05ecd9551c34f6461657

Еще никто не оставлял запись к записи скачать торрент Horace Silver - In Pursuit of the 27th Man {RVG Edition} - 1972, FLAC . Будь первым!

!Обратная связь