Скачать через торрент музыку The Horace Silver Quintet - Song For My Father бесплатно без регистрации torrent

Если у вас наблюдаются проблемы со скриншотами, переходом по ссылками, скачиванием торрентов - проблемы в блокировщике рекламы AdBlock. #хорошегоДня!


Статистика раздачи
Размер:  359 MB   |    Зарегистрирован:  5 лет 8 месяцев   |    .torrent скачан:  37 раз   |   
Раздают:  1  
   
Загрузка...
 
Автор Сообщение

Umakiro

avatar Umakiro


The Horace Silver Quintet - Song For My Father (RVG Edition)
Жанр: Hard Bop
Год выпуска диска: 1999
Производитель диска: Blue Note: RVG Edition (7243 4 99002 2 6)
Аудио кодек: FLAC
Тип рипа: tracks+.cue
Битрейт аудио: lossless
Продолжительность: 1:01:10
Трэклист:
01. Song For My Father (7:18)
02. The Natives Are Restless Tonight (6:11)
03. Calcutta Cutie (8:31)
04. Que Pasa (7:48)
05. The Kicker (5:27)
06. Lonely Woman (7:03)
07. Sanctimonious Sam (3:55)
08. Que Pasa [Trio Version] (5:38)
09. Sighin' And Cryin' (5:26)
10. Silver Treads Among My Soul (3:53)

Carmel Jones - trumpet (#1-5)
Blue Mitchell - trumpet (#6-10)
Joe Henderson - tenor saxophone (#1-5)
Junior Cook - tenor saxophone (#6-10)
Horace Silver - piano
Teddy Smith - bass (#1-5)
Gene Taylor - bass (#6-10)
Roger Humpries - drums (#1-5)
Roy Brooks - drums (#6-10)

Recorded on October 31, 1961 (#3, 6-8), January 28, 1964 (#9, 10) and October 26, 1964 (#1, 2, 4, 5) at the Van Gelder Studio, Englewood Cliffs, New Jersey

За рип благодарность Mazeppa
 
Exact Audio Copy V0.99 prebeta 4 from 23. January 2008

EAC extraction logfile from 8. March 2009, 22:43

Horace Silver / Song For My Father

Used drive : TSSTcorpCDDVDW SH-S223Q Adapter: 2 ID: 1

Read mode : SecureUtilize accurate stream : YesDefeat audio cache : YesMake use of C2 pointers : No

Read offset correction : 6Overread into Lead-In and Lead-Out : NoFill up missing offset samples with silence : YesDelete leading and trailing silent blocks : NoNull samples used in CRC calculations : YesUsed interface : Installed external ASPI interfaceGap handling : Appended to previous track

Used output format : User Defined EncoderSelected bitrate : 320 kBit/sQuality : HighAdd ID3 tag : NoCommand line compressor : C:\Program Files (x86)\Exact Audio Copy\flac.exeAdditional command line options : -8 -V -T "ARTIST=%a" -T "TITLE=%t" -T "ALBUM=%g" -T "DATE=%y" -T "TRACKNUMBER=%n" -T "GENRE=%m" -T "COMMENT=EAC FLAC -8" %s

TOC of the extracted CD

Track | Start | Length | Start sector | End sector --------------------------------------------------------- 1 | 0:00.00 | 7:18.21 | 0 | 32870 2 | 7:18.21 | 6:10.47 | 32871 | 60667 3 | 13:28.68 | 8:31.02 | 60668 | 98994 4 | 21:59.70 | 7:47.53 | 98995 | 134072 5 | 29:47.48 | 5:26.59 | 134073 | 158581 6 | 35:14.32 | 7:02.70 | 158582 | 190301 7 | 42:17.27 | 3:55.08 | 190302 | 207934 8 | 46:12.35 | 5:38.21 | 207935 | 233305 9 | 51:50.56 | 5:25.45 | 233306 | 257725 10 | 57:16.26 | 3:53.12 | 257726 | 275212

Track 1

Filename C:\Audio\Horace Silver - Song For My Father\01 - Song For My Father.wav

Pre-gap length 0:00:02.00

Peak level 97.9 % Track quality 100.0 % Test CRC 43678F24 Copy CRC 43678F24 Accurately ripped (confidence 40) [47CFC4C3] Copy OK

Track 2

Filename C:\Audio\Horace Silver - Song For My Father\02 - The Natives Are Restless Tonight.wav

Pre-gap length 0:00:03.77

Peak level 97.9 % Track quality 100.0 % Test CRC DC93D1DC Copy CRC DC93D1DC Accurately ripped (confidence 39) [29A5DB30] Copy OK

Track 3

Filename C:\Audio\Horace Silver - Song For My Father\03 - Calcutta Cutie.wav

Pre-gap length 0:00:03.30

Peak level 97.9 % Track quality 99.9 % Test CRC BAE751A6 Copy CRC BAE751A6 Accurately ripped (confidence 40) [7C990A04] Copy OK

Track 4

Filename C:\Audio\Horace Silver - Song For My Father\04 - Que Pasa.wav

Pre-gap length 0:00:04.50

Peak level 97.9 % Track quality 100.0 % Test CRC 86205760 Copy CRC 86205760 Accurately ripped (confidence 40) [1DE88788] Copy OK

Track 5

Filename C:\Audio\Horace Silver - Song For My Father\05 - The Kicker.wav

Pre-gap length 0:00:03.50

Peak level 97.9 % Track quality 100.0 % Test CRC EEA06C5B Copy CRC EEA06C5B Accurately ripped (confidence 40) [5E4F9FF0] Copy OK

Track 6

Filename C:\Audio\Horace Silver - Song For My Father\06 - Lonely Woman.wav

Pre-gap length 0:00:03.49

Peak level 97.9 % Track quality 100.0 % Test CRC 5F4656E6 Copy CRC 5F4656E6 Accurately ripped (confidence 38) [B4D0AB9E] Copy OK

Track 7

Filename C:\Audio\Horace Silver - Song For My Father\07 - Sanctimonious Sam.wav

Pre-gap length 0:00:02.80

Peak level 97.9 % Track quality 99.9 % Test CRC 6842A798 Copy CRC 6842A798 Accurately ripped (confidence 38) [DBAC5F4D] Copy OK

Track 8

Filename C:\Audio\Horace Silver - Song For My Father\08 - Que Pasa [Trio Version].wav

Pre-gap length 0:00:03.22

Peak level 97.9 % Track quality 100.0 % Test CRC 5FF0E090 Copy CRC 5FF0E090 Accurately ripped (confidence 39) [BE1A530D] Copy OK

Track 9

Filename C:\Audio\Horace Silver - Song For My Father\09 - Sighin' And Cryin'.wav

Pre-gap length 0:00:04.02

Peak level 97.9 % Track quality 100.0 % Test CRC 86E00DCC Copy CRC 86E00DCC Accurately ripped (confidence 37) [7A306606] Copy OK

Track 10

Filename C:\Audio\Horace Silver - Song For My Father\10 - Silver Treads Among My Soul.wav

Pre-gap length 0:00:03.16

Peak level 97.9 % Track quality 100.0 % Test CRC 4DD25FBB Copy CRC 4DD25FBB Accurately ripped (confidence 36) [102F62DE] Copy OK

All tracks accurately ripped

No errors occurred

End of status report
 
REM GENRE JazzREM DATE 1964REM DISCID 7D0E550AREM COMMENT "ExactAudioCopy v0.99pb4"PERFORMER "Horace Silver"TITLE "Song For My Father"FILE "01 - Song For My Father.wav" WAVE TRACK 01 AUDIO TITLE "Song For My Father" PERFORMER "Horace Silver" FLAGS DCP INDEX 01 00:00:00 TRACK 02 AUDIO TITLE "The Natives Are Restless Tonight" PERFORMER "Horace Silver" FLAGS DCP INDEX 00 07:14:38FILE "02 - The Natives Are Restless Tonight.wav" WAVE INDEX 01 00:00:00 TRACK 03 AUDIO TITLE "Calcutta Cutie" PERFORMER "Horace Silver" FLAGS DCP INDEX 00 06:07:24FILE "03 - Calcutta Cutie.wav" WAVE INDEX 01 00:00:00 TRACK 04 AUDIO TITLE "Que Pasa" PERFORMER "Horace Silver" FLAGS DCP INDEX 00 08:26:39FILE "04 - Que Pasa.wav" WAVE INDEX 01 00:00:00 TRACK 05 AUDIO TITLE "The Kicker" PERFORMER "Horace Silver" FLAGS DCP INDEX 00 07:44:15FILE "05 - The Kicker.wav" WAVE INDEX 01 00:00:00 TRACK 06 AUDIO TITLE "Lonely Woman" PERFORMER "Horace Silver" FLAGS DCP INDEX 00 05:23:22FILE "06 - Lonely Woman.wav" WAVE INDEX 01 00:00:00 TRACK 07 AUDIO TITLE "Sanctimonious Sam" PERFORMER "Horace Silver" FLAGS DCP INDEX 00 07:00:10FILE "07 - Sanctimonious Sam.wav" WAVE INDEX 01 00:00:00 TRACK 08 AUDIO TITLE "Que Pasa [Trio Version]" PERFORMER "Horace Silver" FLAGS DCP INDEX 00 03:51:66FILE "08 - Que Pasa [Trio Version].wav" WAVE INDEX 01 00:00:00 TRACK 09 AUDIO TITLE "Sighin' And Cryin'" PERFORMER "Horace Silver" FLAGS DCP INDEX 00 05:34:19FILE "09 - Sighin' And Cryin'.wav" WAVE INDEX 01 00:00:00 TRACK 10 AUDIO TITLE "Silver Treads Among My Soul" PERFORMER "Horace Silver" FLAGS DCP INDEX 00 05:22:33FILE "10 - Silver Treads Among My Soul.wav" WAVE INDEX 01 00:00:00


Трекер:  [ 28-Янв-2012 10:55 ]

  

Скачать .torrent

Размер .torrent файла 15 KB


Размер: 359 MB
Хэш (hash) релиза: 2983871767fbb0f3c32fe49566d5a4059b0ef514

Еще никто не оставлял запись к записи скачать торрент The Horace Silver Quintet - Song For My Father . Будь первым!

!Обратная связь