Скачать через торрент музыку Horace Parlan – Headin South бесплатно без регистрации torrent

Если у вас наблюдаются проблемы со скриншотами, переходом по ссылками, скачиванием торрентов - проблемы в блокировщике рекламы AdBlock. #хорошегоДня!


Статистика раздачи
Размер:  215 MB   |    Зарегистрирован:  5 лет 8 месяцев   |    .torrent скачан:  32 раза   |   
Раздают:  1  
   
Загрузка...
 
Автор Сообщение

Umakiro

avatar Umakiro


Horace Parlan – Headin' South

Жанр: Jazz, Bop
Год выпуска диска: 2008 (1960)
Издатель (лейбл): Blue Note (RVG Edition)
Номер по каталогу: TOCJ-7175
Аудио кодек: FLAC
Тип рипа: tracks
Битрейт аудио: lossless
Продолжительность: 42:31
Трэклист:

01 Headin' South 4:30
02 The Song Is Ended 5:55
03 Summertime 6:00
04 Low Down 5:30
05 Congalegre 4:23
06 Prelude To A Kiss 5:29
07 Jim Loves Sue 4:33
08 My Mother's Eyes 5:22

Доп. информация:
Рип сделан с фирменного диска в XLD.
 
X Lossless Decoder version 20111113 (137.1)

XLD extraction logfile from 2011-11-16 16:57:43 +0000

Horace Parlan / Headin' South

Used drive : HL-DT-ST DVDRW GA32N (revision KC12)

Ripper mode : XLD Secure RipperDisable audio cache : OK for the drive with a cache less than 1375KiBMake use of C2 pointers : NORead offset correction : 103Max retry count : 100Gap status : Analyzed, Appended

TOC of the extracted CD Track | Start | Length | Start sector | End sector --------------------------------------------------------- 1 | 00:00:00 | 04:29:64 | 0 | 20238 2 | 04:29:64 | 05:55:08 | 20239 | 46871 3 | 10:24:72 | 05:59:72 | 46872 | 73868 4 | 16:24:69 | 05:29:66 | 73869 | 98609 5 | 21:54:60 | 04:23:03 | 98610 | 118337 6 | 26:17:63 | 05:28:47 | 118338 | 142984 7 | 31:46:35 | 04:33:10 | 142985 | 163469 8 | 36:19:45 | 05:22:36 | 163470 | 187655

AccurateRip Summary Track 01 : OK (confidence 2) Track 02 : OK (confidence 2) Track 03 : OK (confidence 2) Track 04 : OK (confidence 2) Track 05 : OK (confidence 2) Track 06 : OK (confidence 2) Track 07 : OK (confidence 2) Track 08 : OK (confidence 2) ->All tracks accurately ripped.

All Tracks Album gain : -4.98 dB Peak : 0.997711 Statistics Read error : 0 Jitter error (maybe fixed) : 0 Retry sector count : 0 Damaged sector count : 0

Track 01 Filename : /Users/staszykov/Desktop/X/01 - Horace Parlan - Headin' South.flac Pre-gap length : 00:02:00

Track gain : -5.52 dB Peak : 0.974762 CRC32 hash (test run) : AE46AA0F CRC32 hash : AE46AA0F CRC32 hash (skip zero) : C2DF8E6E AccurateRip signature : 919D1FE4 ->Accurately ripped! (confidence 2) Statistics Read error : 0 Jitter error (maybe fixed) : 0 Retry sector count : 0 Damaged sector count : 0

Track 02 Filename : /Users/staszykov/Desktop/X/02 - Horace Parlan - The Song Is Ended.flac

Track gain : -4.91 dB Peak : 0.975250 CRC32 hash (test run) : D5EC23BE CRC32 hash : D5EC23BE CRC32 hash (skip zero) : 09777D97 AccurateRip signature : 9D15B06C ->Accurately ripped! (confidence 2) Statistics Read error : 0 Jitter error (maybe fixed) : 0 Retry sector count : 0 Damaged sector count : 0

Track 03 Filename : /Users/staszykov/Desktop/X/03 - Horace Parlan - Summertime.flac Pre-gap length : 00:03:11

Track gain : -4.18 dB Peak : 0.978546 CRC32 hash (test run) : 3DF0FAC1 CRC32 hash : 3DF0FAC1 CRC32 hash (skip zero) : 68C2BE6A AccurateRip signature : 47EB8395 ->Accurately ripped! (confidence 2) Statistics Read error : 0 Jitter error (maybe fixed) : 0 Retry sector count : 0 Damaged sector count : 0

Track 04 Filename : /Users/staszykov/Desktop/X/04 - Horace Parlan - Low Down.flac

Track gain : -4.17 dB Peak : 0.997711 CRC32 hash (test run) : 5338CD9E CRC32 hash : 5338CD9E CRC32 hash (skip zero) : 9BEC4D0F AccurateRip signature : 3D996685 ->Accurately ripped! (confidence 2) Statistics Read error : 0 Jitter error (maybe fixed) : 0 Retry sector count : 0 Damaged sector count : 0

Track 05 Filename : /Users/staszykov/Desktop/X/05 - Horace Parlan - Congalegre.flac Pre-gap length : 00:03:53

Track gain : -6.24 dB Peak : 0.997650 CRC32 hash (test run) : 2EE127FA CRC32 hash : 2EE127FA CRC32 hash (skip zero) : A93826C6 AccurateRip signature : 67CE53A6 ->Accurately ripped! (confidence 2) Statistics Read error : 0 Jitter error (maybe fixed) : 0 Retry sector count : 0 Damaged sector count : 0

Track 06 Filename : /Users/staszykov/Desktop/X/06 - Horace Parlan - Prelude To A Kiss.flac

Track gain : -4.81 dB Peak : 0.954193 CRC32 hash (test run) : 4414AD8D CRC32 hash : 4414AD8D CRC32 hash (skip zero) : 8F80384D AccurateRip signature : B8DB1A81 ->Accurately ripped! (confidence 2) Statistics Read error : 0 Jitter error (maybe fixed) : 0 Retry sector count : 0 Damaged sector count : 0

Track 07 Filename : /Users/staszykov/Desktop/X/07 - Horace Parlan - Jim Loves Sue.flac Pre-gap length : 00:03:46

Track gain : -5.32 dB Peak : 0.975128 CRC32 hash (test run) : 7FA59FF5 CRC32 hash : 7FA59FF5 CRC32 hash (skip zero) : A0373F8A AccurateRip signature : 5FAD00FE ->Accurately ripped! (confidence 2) Statistics Read error : 0 Jitter error (maybe fixed) : 0 Retry sector count : 0 Damaged sector count : 0

Track 08 Filename : /Users/staszykov/Desktop/X/08 - Horace Parlan - My Mother's Eyes.flac Pre-gap length : 00:03:29

Track gain : -3.57 dB Peak : 0.985077 CRC32 hash (test run) : F315D7AB CRC32 hash : F315D7AB CRC32 hash (skip zero) : 2E74AA53 AccurateRip signature : D26EC5A1 ->Accurately ripped! (confidence 2) Statistics Read error : 0 Jitter error (maybe fixed) : 0 Retry sector count : 0 Damaged sector count : 0

No errors occurred

End of status report
 
TITLE "Headin' South"PERFORMER "Horace Parlan"REM GENRE "Jazz"REM DATE "1960"REM DISCID 7009C608REM REPLAYGAIN_ALBUM_GAIN -4.98 dBREM REPLAYGAIN_ALBUM_PEAK 0.997711FILE "01 - Horace Parlan - Headin' South.flac" WAVE TRACK 01 AUDIO TITLE "Headin' South" PERFORMER "Horace Parlan" SONGWRITER "Horace Parlan" ISRC USBN29900457 REM REPLAYGAIN_TRACK_GAIN -5.52 dB REM REPLAYGAIN_TRACK_PEAK 0.974762 INDEX 01 00:00:00FILE "02 - Horace Parlan - The Song Is Ended.flac" WAVE TRACK 02 AUDIO TITLE "The Song Is Ended" PERFORMER "Horace Parlan" SONGWRITER "Irving Berlin" ISRC USBN29900458 REM REPLAYGAIN_TRACK_GAIN -4.91 dB REM REPLAYGAIN_TRACK_PEAK 0.975250 INDEX 01 00:00:00 TRACK 03 AUDIO TITLE "Summertime" PERFORMER "Horace Parlan" SONGWRITER "George Gershwin" ISRC USBN29900459 REM REPLAYGAIN_TRACK_GAIN -4.18 dB REM REPLAYGAIN_TRACK_PEAK 0.978546 INDEX 00 05:51:72FILE "03 - Horace Parlan - Summertime.flac" WAVE INDEX 01 00:00:00FILE "04 - Horace Parlan - Low Down.flac" WAVE TRACK 04 AUDIO TITLE "Low Down" PERFORMER "Horace Parlan" SONGWRITER "Horace Parlan" ISRC USBN29900460 REM REPLAYGAIN_TRACK_GAIN -4.17 dB REM REPLAYGAIN_TRACK_PEAK 0.997711 INDEX 01 00:00:00 TRACK 05 AUDIO TITLE "Congalegre" PERFORMER "Horace Parlan" SONGWRITER "Ray Baretto" ISRC USBN29900461 REM REPLAYGAIN_TRACK_GAIN -6.24 dB REM REPLAYGAIN_TRACK_PEAK 0.997650 INDEX 00 05:26:13FILE "05 - Horace Parlan - Congalegre.flac" WAVE INDEX 01 00:00:00FILE "06 - Horace Parlan - Prelude To A Kiss.flac" WAVE TRACK 06 AUDIO TITLE "Prelude To A Kiss" PERFORMER "Horace Parlan" SONGWRITER "Irving Gordon/Irvung Mills/Duke Ellington" ISRC USBN29900462 REM REPLAYGAIN_TRACK_GAIN -4.81 dB REM REPLAYGAIN_TRACK_PEAK 0.954193 INDEX 01 00:00:00 TRACK 07 AUDIO TITLE "Jim Loves Sue" PERFORMER "Horace Parlan" SONGWRITER "Ahmad Jamal" ISRC USBN29900463 REM REPLAYGAIN_TRACK_GAIN -5.32 dB REM REPLAYGAIN_TRACK_PEAK 0.975128 INDEX 00 05:25:01FILE "07 - Horace Parlan - Jim Loves Sue.flac" WAVE INDEX 01 00:00:00 TRACK 08 AUDIO TITLE "My Mother's Eyes" PERFORMER "Horace Parlan" SONGWRITER "Gilbert/Baer" ISRC USBN29900464 REM REPLAYGAIN_TRACK_GAIN -3.57 dB REM REPLAYGAIN_TRACK_PEAK 0.985077 INDEX 00 04:29:56FILE "08 - Horace Parlan - My Mother's Eyes.flac" WAVE INDEX 01 00:00:00

Не забывайте

Трекер:  [ 28-Янв-2012 10:54 ]

  

Скачать .torrent

Размер .torrent файла 18 KB


Размер: 215 MB
Хэш (hash) релиза: a6133d5281b3f993e280b18ec58f124b2571980d

Еще никто не оставлял запись к записи скачать торрент Horace Parlan – Headin South . Будь первым!

!Обратная связь