Скачать через торрент музыку Horace Parlan - Up & Down {RVG Edition} - 1961, APE бесплатно без регистрации torrent

Если у вас наблюдаются проблемы со скриншотами, переходом по ссылками, скачиванием торрентов - проблемы в блокировщике рекламы AdBlock. #хорошегоДня!


Статистика раздачи
Размер:  297 MB   |    Зарегистрирован:  5 лет 8 месяцев   |    .torrent скачан:  34 раза   |   
Раздают:  1  
   
Загрузка...
 
Автор Сообщение

Umakiro

avatar Umakiro


Horace Parlan - Up & Down {RVG Edition}

Жанр: Hard Bop
Год выпуска диска: 1961
Производитель диска: EU
Аудио кодек: APE
Тип рипа: image+.cue
Битрейт аудио: lossless
Продолжительность: 52:00
Лейбл: Blue Note
Источник: собственный рип, full scan 300dpi

Трэклист:
1. The Book's Beat
2. Up and Down
3. Fugee
4. The Other Part of Town
5. Lonely One
6. Light Blue
7. Fugee [alternate take]

Музыканты:
Booker Ervin, tenor sax
Grant Green, guitar
Horace Parlan, piano
George Tucker, bass
Al Harewood, drums

Originally recorded on June 18, 1961 at the Van Gelder Studio, Englewood Cliffs, New Jersey
Remastered in 2008 by Rudy Van Gelder
 
Exact Audio Copy V0.99 prebeta 4 from 23. January 2008

Отчёт EAC об извлечении, выполненном 3. августа 2010, 18:06

Horace Parlan / Up & Down

Дисковод: Optiarc DVD RW AD-7200A Adapter: 3 ID: 1

Режим чтения : ДостоверностьИспользование точного потока : ДаОтключение кэша аудио : ДаИспользование указателей C2 : Нет

Коррекция смещения при чтении : 48Способность читать области Lead-in и Lead-out : НетЗаполнение пропущенных сэмплов тишиной : ДаУдаление блоков с тишиной в начале и конце : НетПри вычислениях CRC использовались нулевые сэмплы : ДаИнтерфейс : Встроенный Win32-интерфейс для Win NT/2000

Выходной формат : Внутренние WAV-операцииФормат сэмплов : 44.100 Гц; 16 бит; стерео

TOC извлечённого CD

Трек | Старт | Длительность | Начальный сектор | Конечный сектор --------------------------------------------------------------------- 1 | 0:00.00 | 9:50.59 | 0 | 44308 2 | 9:50.59 | 6:11.25 | 44309 | 72158 3 | 16:02.09 | 7:04.51 | 72159 | 104009 4 | 23:06.60 | 11:41.10 | 104010 | 156594 5 | 34:47.70 | 4:06.20 | 156595 | 175064 6 | 38:54.15 | 6:04.34 | 175065 | 202398 7 | 44:58.49 | 7:01.61 | 202399 | 234034

Характеристики диапазона извлечения и сообщения об ошибках

Выбранный диапазон

Имя файла E:\Up-Down\Horace Parlan - Up & Down\Horace Parlan - Up & Down.wav

Пиковый уровень 97.9 % Качество диапазона 100.0 % CRC копии 55D3CFAC Копирование... OK

Ошибок не произошло

AccurateRip: сводка

Трек 1 точное извлечение (доверие 8) [174F8795]Трек 2 точное извлечение (доверие 8) [D7163405]Трек 3 точное извлечение (доверие 8) [B28B7709]Трек 4 точное извлечение (доверие 8) [E3380022]Трек 5 точное извлечение (доверие 8) [25402BEC]Трек 6 точное извлечение (доверие 8) [66667DB9]Трек 7 точное извлечение (доверие 8) [C367E97E]

Все треки извлечены точно

Конец отчёта


Трекер:  [ 28-Янв-2012 10:53 ]

  

Скачать .torrent

Размер .torrent файла 12 KB


Размер: 297 MB
Хэш (hash) релиза: 60b8dd691275f68462321eae83fcfa6333548e07

Еще никто не оставлял запись к записи скачать торрент Horace Parlan - Up & Down {RVG Edition} - 1961, APE . Будь первым!

!Обратная связь