Скачать через торрент музыку Horace Silver - Doin The Thing At the Village Gate {RVG Edition} - 1961, FLAC бесплатно без регистрации torrent

Если у вас наблюдаются проблемы со скриншотами, переходом по ссылками, скачиванием торрентов - проблемы в блокировщике рекламы AdBlock. #хорошегоДня!


Статистика раздачи
Размер:  404 MB   |    Зарегистрирован:  5 лет 8 месяцев   |    .torrent скачан:  28 раз   |   
Раздают:  1  
   
Загрузка...
 
Автор Сообщение

Umakiro

avatar Umakiro


Horace Silver - Doin' The Thing At the Village Gate {RVG Edition}

Жанр: Soul-Jazz, Hard Bop
Год выпуска диска: 1961
Производитель диска: USA
Аудио кодек: FLAC
Тип рипа: image+.cue
Битрейт аудио: lossless
Продолжительность: 53:57
Лейбл: Blue Note

Трэклист:
1 Filthy McNasty
2 Doin' the Thing
3 Kiss Me Right
4 The Gringo/Cool Eyes(Theme)
5 It Ain't S'posed To Be Like That
6 Cool Eyes (full version)

Музыканты:
Blue Mitchell, trumpet
Junior Cook, tenor sax
Horace Silver, piano
Gene Taylor, bass
Roy Brooks, drums
Exact Audio Copy V0.99 prebeta 4 from 23. January 2008

Отчёт EAC об извлечении, выполненном 2. февраля 2009, 21:25

Horace Silver / Doin' The Thing - At the Village Gate

Дисковод: _NEC NR-7900A Adapter: 3 ID: 1

Режим чтения : Достоверность
Использование точного потока : Да
Отключение кэша аудио : Да
Использование указателей C2 : Нет

Коррекция смещения при чтении : 685
Способность читать области Lead-in и Lead-out : Нет
Заполнение пропущенных сэмплов тишиной : Да
Удаление блоков с тишиной в начале и конце : Нет
При вычислениях CRC использовались нулевые сэмплы : Да
Интерфейс : Установленный внешний ASPI-интерфейс

Выходной формат : Пользовательский кодировщик
Выбранный битрейт : 768 kBit/s
Качество : Высокий
Добавление ID3-тэга : Нет
Утилита сжатия : C:\Program Files\Exact Audio Copy\FLAC\FLAC.EXE
Дополнительные параметры : -6 -V -T "ARTIST=%a" -T "TITLE=%t" -T "ALBUM=%g" -T "DATE=%y" -T "TRACKNUMBER=%n" -T "GENRE=%m" -T "COMMENT=%e" %s -o %d

TOC извлечённого CD

Трек | Старт | Длительность | Начальный сектор | Конечный сектор
---------------------------------------------------------------------
1 | 0:00.00 | 11:02.02 | 0 | 49651
2 | 11:02.02 | 11:16.18 | 49652 | 100369
3 | 22:18.20 | 9:18.57 | 100370 | 142276
4 | 31:37.02 | 12:03.29 | 142277 | 196530
5 | 43:40.31 | 6:21.21 | 196531 | 225126
6 | 50:01.52 | 3:56.15 | 225127 | 242841

Характеристики диапазона извлечения и сообщения об ошибках

Выбранный диапазон

Имя файла D:\My Music\ext\Архивы\Horace Silver - Doin' The Thing - At the Village Gate\Horace Silver - Doin' The Thing - At the Village Gate.wav

Пиковый уровень 97.9 %
Качество диапазона 99.9 %
CRC копии 54B14F1B
Копирование... OK

Ошибок не произошло

AccurateRip: сводка

Трек 1 точное извлечение (доверие 3) [09C65957]
Трек 2 точное извлечение (доверие 3) [EBBF6909]
Трек 3 точное извлечение (доверие 3) [6D64A1FA]
Трек 4 точное извлечение (доверие 3) [5E1EA00A]
Трек 5 точное извлечение (доверие 3) [7B6CEACD]
Трек 6 точное извлечение (доверие 3) [F7A84AFA]

Все треки извлечены точно

Конец отчёта
Доп. информация:
Originally recorded live on May 19 & 20, 1961 at the Village Gate, NY City
Remastered in 2006 by Rudy Van Gelder

Трекер:  [ 28-Янв-2012 10:53 ]

  

Скачать .torrent

Размер .torrent файла 17 KB


Размер: 404 MB
Хэш (hash) релиза: f4e765f3f79987e02d580da571d4227bccdacffd

Еще никто не оставлял запись к записи скачать торрент Horace Silver - Doin The Thing At the Village Gate {RVG Edition} - 1961, FLAC . Будь первым!

!Обратная связь