Скачать через торрент музыку Herbie Hancock- My Point of View - 196 бесплатно без регистрации torrent

Если у вас наблюдаются проблемы со скриншотами, переходом по ссылками, скачиванием торрентов - проблемы в блокировщике рекламы AdBlock. #хорошегоДня!


Статистика раздачи
Размер:  245 MB   |    Зарегистрирован:  5 лет 8 месяцев   |    .torrent скачан:  28 раз   |   
Раздают:  1  
   
Загрузка...
 
Автор Сообщение

Umakiro

avatar Umakiro


Herbie Hancock- My Point of View

Жанр: Jazz,Hard-Bop,Modal music
Год выпуска диска: 1963
Производитель диска: Blue Note
Аудио кодек: FLAC
Тип рипа: image+.cue
Битрейт аудио: lossless
Продолжительность: 43:01

Recorded March 19, 1963, at the Van Gelder Studios, Englewood Cliffs, New Jersey
RVG Remaster CD Sep 14, 1999

Трэклист:

1. Blind Man, Blind Man 8:15
2. A Tribute to Someone 8:40
3. King Cobra 6:51
4. The Pleasure Is Mine 4:00
5. And What If I Don't 6:30
6. Blind Man, Blind Man [alternate take] 8:21

All Compositions by Herbie Hancock

Band:

Bass - Chuck Israels
Drums - Anthony Williams
Guitar - Grant Green
Piano - Herbie Hancock
Tenor Sax - Hank Mobley
Trombone - Grachan Moncur III
Trumpet - Donald Byrd
Exact Audio Copy V0.99 prebeta 4 from 23. January 2008

Отчёт EAC об извлечении, выполненном 2. июля 2009, 12:32

Herbie Hancock / My Point of View

Дисковод: LITE-ON DVDRW LH-20A1H Adapter: 0 ID: 0

Режим чтения : Достоверность
Использование точного потока : Да
Отключение кэша аудио : Да
Использование указателей C2 : Нет

Коррекция смещения при чтении : 6
Способность читать области Lead-in и Lead-out : Нет
Заполнение пропущенных сэмплов тишиной : Да
Удаление блоков с тишиной в начале и конце : Нет
При вычислениях CRC использовались нулевые сэмплы : Да
Интерфейс : Установленный внешний ASPI-интерфейс

Выходной формат : Пользовательский кодировщик
Выбранный битрейт : 768 kBit/s
Качество : Высокий
Добавление ID3-тэга : Нет
Утилита сжатия : C:\Program Files\Exact Audio Copy\FLAC\FLAC.EXE
Дополнительные параметры : -6 -V -T "ARTIST=%a" -T "TITLE=%t" -T "ALBUM=%g" -T "DATE=%y" -T "TRACKNUMBER=%n" -T "GENRE=%m" -T "COMMENT=%e" %s -o %d

TOC извлечённого CD

Трек | Старт | Длительность | Начальный сектор | Конечный сектор
---------------------------------------------------------------------
1 | 0:00.00 | 8:19.19 | 0 | 37443
2 | 8:19.19 | 8:45.00 | 37444 | 76818
3 | 17:04.19 | 6:55.17 | 76819 | 107960
4 | 23:59.36 | 4:03.11 | 107961 | 126196
5 | 28:02.47 | 6:35.35 | 126197 | 155856
6 | 34:38.07 | 8:23.41 | 155857 | 193622

Характеристики диапазона извлечения и сообщения об ошибках

Выбранный диапазон

Имя файла G:\RAB\Herbie Hancock-My Point Of View\Herbie Hancock - My Point of View.wav

Пиковый уровень 97.9 %
Качество диапазона 100.0 %
CRC теста 86CFBFF5
CRC копии 86CFBFF5
Копирование... OK

Ошибок не произошло

AccurateRip: сводка

Трек 1 точное извлечение (доверие 7) [75C5A629]
Трек 2 точное извлечение (доверие 7) [35B59AD5]
Трек 3 точное извлечение (доверие 7) [7EB25A2E]
Трек 4 точное извлечение (доверие 7) [0BC9EC41]
Трек 5 точное извлечение (доверие 7) [A3826CF7]
Трек 6 точное извлечение (доверие 7) [B21E3D16]

Все треки извлечены точно

Конец отчёта


Трекер:  [ 28-Янв-2012 10:52 ]

  

Скачать .torrent

Размер .torrent файла 2 KB


Размер: 245 MB
Хэш (hash) релиза: 29fc77bc1305dbf56d4837d323c81197defd518d

Еще никто не оставлял запись к записи скачать торрент Herbie Hancock- My Point of View - 196 . Будь первым!

!Обратная связь