Скачать через торрент музыку Herbie Hancock - Takin Off {RVG Edition} - 1962, APE бесплатно без регистрации torrent

Если у вас наблюдаются проблемы со скриншотами, переходом по ссылками, скачиванием торрентов - проблемы в блокировщике рекламы AdBlock. #хорошегоДня!


Статистика раздачи
Размер:  388 MB   |    Зарегистрирован:  5 лет 8 месяцев   |    .torrent скачан:  50 раз   |   
Раздают:  1  
   
Загрузка...
 
Автор Сообщение

Umakiro

avatar Umakiro


Herbie Hancock - Takin' Off {RVG Edition}

Жанр: Hard Bop
Год выпуска диска: 1962
Производитель диска: EU
Аудио кодек: APE
Тип рипа: image+.cue
Битрейт аудио: lossless
Продолжительность: 57:39
Лейбл: Blue Note
Источник: собственный рип, full scan 300dpi

Трэклист:
1. Watermelon Man
2. Three Bags Full
3. Empty Pockets
4. The Maze
5. Driftin'
6. Alone And
7. Watermelon Man [alternate take]
8. Three Bags Full [alternate take]
9. Empty Pockets [alternate take]

Музыканты:
Freddie Hubbard — trumpet, flugelhorn
Dexter Gordon — tenor sax
Herbie Hancock — piano
Butch Warren — bass
Billy Higgins — drums

Originally recorded on May 28, 1962 at the Van Gelder Studio, Englewood Cliffs, New Jersey
Remastered in 2007 by Rudy Van Gelder
 
Exact Audio Copy V0.99 prebeta 4 from 23. January 2008

Отчёт EAC об извлечении, выполненном 14. августа 2010, 0:27

Herbie Hancock / Takin' Off

Дисковод: Optiarc DVD RW AD-7200A Adapter: 3 ID: 1

Режим чтения : ДостоверностьИспользование точного потока : ДаОтключение кэша аудио : ДаИспользование указателей C2 : Нет

Коррекция смещения при чтении : 48Способность читать области Lead-in и Lead-out : НетЗаполнение пропущенных сэмплов тишиной : ДаУдаление блоков с тишиной в начале и конце : НетПри вычислениях CRC использовались нулевые сэмплы : ДаИнтерфейс : Встроенный Win32-интерфейс для Win NT/2000

Выходной формат : Внутренние WAV-операцииФормат сэмплов : 44.100 Гц; 16 бит; стерео

TOC извлечённого CD

Трек | Старт | Длительность | Начальный сектор | Конечный сектор --------------------------------------------------------------------- 1 | 0:00.00 | 7:09.20 | 0 | 32194 2 | 7:09.20 | 5:26.56 | 32195 | 56700 3 | 12:36.01 | 6:12.20 | 56701 | 84620 4 | 18:48.21 | 6:48.35 | 84621 | 115255 5 | 25:36.56 | 6:57.52 | 115256 | 146582 6 | 32:34.33 | 6:29.58 | 146583 | 175815 7 | 39:04.16 | 6:34.46 | 175816 | 205411 8 | 45:38.62 | 5:32.31 | 205412 | 230342 9 | 51:11.18 | 6:27.67 | 230343 | 259434

Характеристики диапазона извлечения и сообщения об ошибках

Выбранный диапазон

Имя файла E:\Up-Down\Herbie Hancock - Takin' Off\Herbie Hancock - Takin' Off.wav

Пиковый уровень 97.9 % Качество диапазона 99.9 % CRC копии 6EF2E82F Копирование... OK

Ошибок не произошло

AccurateRip: сводка

Трек 1 точное извлечение (доверие 20) [0DF962FE]Трек 2 точное извлечение (доверие 20) [90AD2BF0]Трек 3 точное извлечение (доверие 20) [94F810E3]Трек 4 точное извлечение (доверие 20) [304C617C]Трек 5 точное извлечение (доверие 20) [34BA0196]Трек 6 точное извлечение (доверие 20) [A2EEBFBF]Трек 7 точное извлечение (доверие 20) [4D8CA84C]Трек 8 точное извлечение (доверие 21) [D0E91F39]Трек 9 точное извлечение (доверие 21) [5C7AA1F8]

Все треки извлечены точно

Конец отчёта


Трекер:  [ 28-Янв-2012 10:52 ]

  

Скачать .torrent

Размер .torrent файла 16 KB


Размер: 388 MB
Хэш (hash) релиза: c54ea8ee43767f64898799d8ac89bc85260a1399

Еще никто не оставлял запись к записи скачать торрент Herbie Hancock - Takin Off {RVG Edition} - 1962, APE . Будь первым!

!Обратная связь