Скачать через торрент музыку Herbie Hancock - Speak Like a Child бесплатно без регистрации torrent

Если у вас наблюдаются проблемы со скриншотами, переходом по ссылками, скачиванием торрентов - проблемы в блокировщике рекламы AdBlock. #хорошегоДня!


Статистика раздачи
Размер:  305 MB   |    Зарегистрирован:  5 лет 8 месяцев   |    .torrent скачан:  36 раз   |   
Раздают:  1  
   
Загрузка...
 
Автор Сообщение

Umakiro

avatar Umakiro


Herbie Hancock - Speak Like a Child [ORIGINAL RECORDING REMASTERED]

Жанр: Jazz
Год выпуска: 1968
Формат: FLAC (image + .cue)
Битрейт аудио: lossless
Продолжительность: 52:35
Трэклист:
1. Riot (2004 Digital Remaster) 4:40
2. Speak Like A Child (2004 Digital Remaster) 7:49
3. First Trip (2004 Digital Remaster) 6:01
4. Toys (2004 Digital Remaster) 5:53
5. Goodbye To Childhood (2004 Digital Remaster) 7:07
6. The Sorcerer (2004 Digital Remaster) 5:36
7. Riot (First Alternate Take) (2004 Digital Remaster) 4:55
8. Riot (Second Alternate Take) (2004 Digital Remaster) 4:40
9. Goodbye To Childhood (Alternate Take) (2004 Digital Remaster) 5:50
Доп. информация: Ремастер классического альбома мастера, дополненный еще двумя версиями Riot. Рип с пиратки. Сканы в комплекте.
Recorded on March 6 (#1-3, 7, 8) and March 9 (#4-6, 9), 1968 at the Van Gelder Studio, Englewood Cliffs, New Jersey
Musicians:
THAD JONES, fluegelhorn; PETER PHILLIPS, bass trombone; JERRY DODGION, alto flute; HERBIE HANCOCK, piano; RON CARTER, bass; MICKEY ROKER, drums
Exact Audio Copy V0.99 prebeta 3 from 28. July 2007

Отчёт EAC об извлечении, выполненном 23. марта 2008, 22:29

Herbie Hancock / Speak Like A Child [RVG Edition]

Дисковод: TOSHIBA DVD-ROM SD-M1712 Adapter: 0 ID: 3

Режим чтения : Достоверность
Использование точного потока : Да
Отключение кэша аудио : Да
Использование указателей C2 : Нет

Коррекция смещения при чтении : -472
Способность читать области Lead-in и Lead-out : Нет
Заполнение пропущенных сэмплов тишиной : Да
Удаление блоков с тишиной в начале и конце : Нет
При вычислениях CRC использовались нулевые сэмплы : Да
Интерфейс : Установленный внешний ASPI-интерфейс

Выходной формат : Пользовательский кодировщик
Выбранный битрейт : 768 kBit/s
Качество : Высокий
Добавление ID3-тэга : Нет
Утилита сжатия : C:\Program Files\Exact Audio Copy\FLAC\FLAC.EXE
Дополнительные параметры : -6 -V -T "ARTIST=%a" -T "TITLE=%t" -T "ALBUM=%g" -T "DATE=%y" -T "TRACKNUMBER=%n" -T "GENRE=%m" -T "COMMENT=%e" %s -o %d

TOC извлечённого CD

Трек | Старт | Длительность | Начальный сектор | Конечный сектор
---------------------------------------------------------------------
1 | 0:00.00 | 4:40.11 | 0 | 21010
2 | 4:40.11 | 7:50.64 | 21011 | 56324
3 | 12:31.00 | 6:01.47 | 56325 | 83446
4 | 18:32.47 | 5:52.72 | 83447 | 109918
5 | 24:25.44 | 7:06.72 | 109919 | 141940
6 | 31:32.41 | 5:36.68 | 141941 | 167208
7 | 37:09.34 | 4:55.16 | 167209 | 189349
8 | 42:04.50 | 4:40.32 | 189350 | 210381
9 | 46:45.07 | 5:50.32 | 210382 | 236663

Характеристики диапазона извлечения и сообщения об ошибках

Выбранный диапазон

Имя файла G:\My Docs 2\My Music 2\Herbie Hancock - Speak Like a Child\Herbie Hancock - Speak Like A Child [RVG Edition].wav

Пиковый уровень 97.9 %
Качество диапазона 100.0 %
CRC копии 066F1BCD
Копирование... OK

Ошибок не произошло

Конец отчёта


Трекер:  [ 28-Янв-2012 10:51 ]

  

Скачать .torrent

Размер .torrent файла 13 KB


Размер: 305 MB
Хэш (hash) релиза: 16177f3dbfd141ee5676cf9e2d659d2f84e1e141

Еще никто не оставлял запись к записи скачать торрент Herbie Hancock - Speak Like a Child . Будь первым!

!Обратная связь