Скачать через торрент музыку Herbie Hancock - Maiden Voyage {RVG Edition} - 1965, APE бесплатно без регистрации torrent

Если у вас наблюдаются проблемы со скриншотами, переходом по ссылками, скачиванием торрентов - проблемы в блокировщике рекламы AdBlock. #хорошегоДня!


Статистика раздачи
Размер:  175 MB   |    Зарегистрирован:  5 лет 8 месяцев   |    .torrent скачан:  31 раз   |   
Раздают:  1  
   
Загрузка...
 
Автор Сообщение

Umakiro

avatar Umakiro


Herbie Hancock - Maiden Voyage {RVG Edition}

Жанр: Modal Music/Hard Bop
Год выпуска диска: 1965
Производитель диска: Россия (лицензия)
Аудио кодек: APE
Тип рипа: image+.cue
Битрейт аудио: lossless
Продолжительность: 42:20
Лейбл: Blue Note

Трэклист:
1 Maiden Voyage
2 The Eye of the Hurricane
3 Little One
4 Survival of the Fittest
5 Dolphin Dance

Музыканты:
Herbie Hancock, piano
Freddie Hubbard, trumpet
George Coleman, tenor sax
Ron Carter, bass
Tony Williams, drums

Originally recorded on March 17, 1965 at the Van Gelder Studio, Englewood Cliffs, New Jersey
 
Exact Audio Copy V0.99 prebeta 4 from 23. January 2008

Отчёт EAC об извлечении, выполненном 24. августа 2009, 9:45

Herbie Hancock / Maiden Voyage

Дисковод: Optiarc DVD RW AD-7200A Adapter: 3 ID: 1

Режим чтения : ДостоверностьИспользование точного потока : ДаОтключение кэша аудио : ДаИспользование указателей C2 : Нет

Коррекция смещения при чтении : 48Способность читать области Lead-in и Lead-out : НетЗаполнение пропущенных сэмплов тишиной : ДаУдаление блоков с тишиной в начале и конце : НетПри вычислениях CRC использовались нулевые сэмплы : ДаИнтерфейс : Установленный внешний ASPI-интерфейс

Выходной формат : Внутренние WAV-операцииФормат сэмплов : 44.100 Гц; 16 бит; стерео

TOC извлечённого CD

Трек | Старт | Длительность | Начальный сектор | Конечный сектор --------------------------------------------------------------------- 1 | 0:00.00 | 7:58.23 | 0 | 35872 2 | 7:58.23 | 6:02.10 | 35873 | 63032 3 | 14:00.33 | 8:50.20 | 63033 | 102802 4 | 22:50.53 | 10:08.05 | 102803 | 148407 5 | 32:58.58 | 9:19.20 | 148408 | 190352

Характеристики диапазона извлечения и сообщения об ошибках

Выбранный диапазон

Имя файла E:\Up-Down\Herbie Hancock - Maiden Voyage\Herbie Hancock - Maiden Voyage.wav

Пиковый уровень 53.6 % Качество диапазона 100.0 % CRC копии D9FC35FC Копирование... OK

Ошибок не произошло

Конец отчёта
 
AUDIOCHECKER v1.2 - by Dester - opdester@freemail.hu~~~~~~~~~~~~~~~~~

1 -===- E:\Up-Down\Herbie Hancock - Maiden Voyage\Herbie Hancock - Maiden Voyage.ape Extracted successfully Conclusion: This track looks like CDDA with probability 100%


Трекер:  [ 28-Янв-2012 10:50 ]

  

Скачать .torrent

Размер .torrent файла 14 KB


Размер: 175 MB
Хэш (hash) релиза: 9a592eab18a6a31e84091fc93393e8e76857c9a2

Еще никто не оставлял запись к записи скачать торрент Herbie Hancock - Maiden Voyage {RVG Edition} - 1965, APE . Будь первым!

!Обратная связь