Скачать через торрент музыку Herbie Hancock - Empyrean Isles {RVG Edition} - 1964, FLAC бесплатно без регистрации torrent

Если у вас наблюдаются проблемы со скриншотами, переходом по ссылками, скачиванием торрентов - проблемы в блокировщике рекламы AdBlock. #хорошегоДня!


Статистика раздачи
Размер:  281 MB   |    Зарегистрирован:  5 лет 8 месяцев   |    .torrent скачан:  37 раз   |   
Раздают:  1  
   
Загрузка...
 
Автор Сообщение

Umakiro

avatar Umakiro


Herbie Hancock - Empyrean Isles {RVG Edition}

Жанр: Modal Music/Hard Bop
Год выпуска диска: 1964
Производитель диска: USA
Аудио кодек: FLAC
Тип рипа: image+.cue
Битрейт аудио: lossless
Продолжительность: 53:48
Лейбл: Blue Note
Источник: NoNaMe

Трэклист:
1. One Finger Snap
2. Oliloqui Valley
3. Cantaloupe Island
4. The Egg
5. One Finger Snap [alternate take]
6. Oliloqui Valley [alternate take]

Музыканты:
Freddie Hubbard - cornet
Herbie Hancock - piano
Ron Carter - bass
Tony Williams - drums

Originally recorded on June 17, 1964 at the Van Gelder Studio, Englewood Cliffs, New Jersey
Remastered in 1998 by Rudy Van Gelder
 
Exact Audio Copy V0.99 prebeta 3 from 28. July 2007

Отчёт EAC об извлечении, выполненном 26. октября 2008, 7:17

Herbie Hancock / Empyrean Isles

Дисковод: _NEC DVD_RW ND-3540A Adapter: 2 ID: 0

Режим чтения : ДостоверностьИспользование точного потока : ДаОтключение кэша аудио : ДаИспользование указателей C2 : Нет

Коррекция смещения при чтении : 48Способность читать области Lead-in и Lead-out : НетЗаполнение пропущенных сэмплов тишиной : ДаУдаление блоков с тишиной в начале и конце : НетПри вычислениях CRC использовались нулевые сэмплы : ДаИнтерфейс : Установленный внешний ASPI-интерфейс

Выходной формат : Пользовательский кодировщикВыбранный битрейт : 768 kBit/sКачество : ВысокийДобавление ID3-тэга : ДаУтилита сжатия : C:\Program Files\Exact Audio Copy\FLAC\FLAC.EXEДополнительные параметры : -6 -V -T "ARTIST=%a" -T "TITLE=%t" -T "ALBUM=%g" -T "DATE=%y" -T "TRACKNUMBER=%n" -T "GENRE=%m" -T "COMMENT=%e" %s -o %d

TOC извлечённого CD

Трек | Старт | Длительность | Начальный сектор | Конечный сектор --------------------------------------------------------------------- 1 | 0:00.00 | 7:20.49 | 0 | 33048 2 | 7:20.49 | 8:28.60 | 33049 | 71208 3 | 15:49.34 | 5:32.21 | 71209 | 96129 4 | 21:21.55 | 14:00.21 | 96130 | 159150 5 | 35:22.01 | 7:37.61 | 159151 | 193486 6 | 42:59.62 | 10:49.10 | 193487 | 242171

Характеристики диапазона извлечения и сообщения об ошибках

Выбранный диапазон

Имя файла C:\Documents and Settings\Миша\Мои документы\Herbie Hancock - Empyrean Isles\Herbie Hancock - Empyrean Isles.wav

Пиковый уровень 97.9 % Качество диапазона 99.9 % CRC копии A80B72F5 Копирование... OK

Ошибок не произошло

AccurateRip: сводка

Трек 1 точное извлечение (доверие 12) [7F057D99]Трек 2 точное извлечение (доверие 12) [DDD3774E]Трек 3 точное извлечение (доверие 12) [A06F2E00]Трек 4 точное извлечение (доверие 12) [865FC837]Трек 5 точное извлечение (доверие 12) [D1CF0ED3]Трек 6 точное извлечение (доверие 12) [CF66C068]

Все треки извлечены точно

Конец отчёта
 
AUDIOCHECKER v1.2 - by Dester - opdester@freemail.hu~~~~~~~~~~~~~~~~~

1 -===- E:\Up-Down\Herbie Hancock - Empyrean Isles\Herbie Hancock - Empyrean Isles.flac Extracted successfully Conclusion: This track looks like CDDA with probability 100%


Трекер:  [ 28-Янв-2012 10:50 ]

  

Скачать .torrent

Размер .torrent файла 12 KB


Размер: 281 MB
Хэш (hash) релиза: 8e1a612a1f424562497cc2dafc0eeae294834633

Еще никто не оставлял запись к записи скачать торрент Herbie Hancock - Empyrean Isles {RVG Edition} - 1964, FLAC . Будь первым!

!Обратная связь