Скачать через торрент музыку Hank Mobley - Hank бесплатно без регистрации torrent

Если у вас наблюдаются проблемы со скриншотами, переходом по ссылками, скачиванием торрентов - проблемы в блокировщике рекламы AdBlock. #хорошегоДня!


Статистика раздачи
Размер:  216 MB   |    Зарегистрирован:  5 лет 8 месяцев   |    .torrent скачан:  28 раз   |   
Раздают:  1  
   
Загрузка...
 
Автор Сообщение

Umakiro

avatar Umakiro


Hank Mobley - Hank

Жанр: Hard Bop
Год выпуска диска: 2000
Производитель диска: Japan Blue Note (RVG Edition) (1560)
Аудио кодек: FLAC
Тип рипа: tracks+.cue
Битрейт аудио: lossless
Продолжительность: 37:41

Трэклист:
01. Fit for a Hanker (Mobley)
02. Hi Groove, Low Feed-back (Mobley)
03. Easy to Love (Porter)
04. Time After Time (Styne-Cahn)
05. Dance of the Infidels (Powell)

Personnel:
Donald Byrd - trumpet
John Jenkins - alto sax
Hank Mobley - tenor sax
Bobby Timmons - piano
Wilbur Ware - bass
"Philly" Joe Jones - drums

Originally recorded on April 21, 1957 at the Van Gelder Recording Studio, Hackensack, New Jersey.
Remastered in 2000 by Rudy Van Gelder.
One of Hank Mobley's greatest sides from the hardbop years of the late 50s -- a searing sextet session with a 3-horn frontline! The group features Mobley on tenor, John Jenkins on alto, and Donald Byrd on trumpet -- plus a crackling rhythm group with Bobby Timmons, Wilbur Ware, and Philly Joe Jones. It's great to hear Timmons and Ware together, especially as both of them were at the height of their powers at this point in their careers -- and Jenkins' soulful alto work is a key part of the set, and makes us wish he'd gotten in the studio more after this time. Great throughout, with 2 long titles that include "Fit For A Hanker" and "Hi Groove, Low Feedback", a nice take of Bud Powell's "Dance Of The Infidels", plus "Time After Time" and "Easy To Love".

Код:

Exact Audio Copy V0.99 prebeta 5 from 4. May 2009

EAC extraction logfile from 13. July 2009, 16:53

Hank Mobley / Hank

Used drive  : TSSTcorpCDDVDW SH-S223Q   Adapter: 2  ID: 1

Read mode               : Secure
Utilize accurate stream : Yes
Defeat audio cache      : Yes
Make use of C2 pointers : No

Read offset correction                      : 6
Overread into Lead-In and Lead-Out          : No
Fill up missing offset samples with silence : Yes
Delete leading and trailing silent blocks   : No
Null samples used in CRC calculations       : Yes
Used interface                              : Installed external ASPI interface
Gap handling                                : Appended to previous track

Used output format              : User Defined Encoder
Selected bitrate                : 320 kBit/s
Quality                         : High
Add ID3 tag                     : No
Command line compressor         : C:\Program Files (x86)\Exact Audio Copy\Flac\flac.exe
Additional command line options : -V -8 -T "artist=%a" -T "title=%t" -T "album=%g" -T "date=%y" -T "tracknumber=%n" -T "genre=%m" %s

TOC of the extracted CD

     Track |   Start  |  Length  | Start sector | End sector
    ---------------------------------------------------------
        1  |  0:00.00 |  7:24.06 |         0    |    33305
        2  |  7:24.06 |  9:56.43 |     33306    |    78048
        3  | 17:20.49 |  5:39.48 |     78049    |   103521
        4  | 23:00.22 |  6:48.18 |    103522    |   134139
        5  | 29:48.40 |  7:54.18 |    134140    |   169707

Track  1

     Filename C:\Audio\Hank Mobley - Hank (1957) [FLAC] {2000 Japan Blue Note RVG}\01 - Fit For A Hanker.wav

     Pre-gap length  0:00:02.00

     Peak level 99.7 %
     Track quality 100.0 %
     Test CRC A5952120
     Copy CRC A5952120
     Track not present in AccurateRip database
     Copy OK

Track  2

     Filename C:\Audio\Hank Mobley - Hank (1957) [FLAC] {2000 Japan Blue Note RVG}\02 - Hi Groove, Low Feed-Back.wav

     Pre-gap length  0:00:03.20

     Peak level 99.7 %
     Track quality 100.0 %
     Test CRC FC0EFC5C
     Copy CRC FC0EFC5C
     Track not present in AccurateRip database
     Copy OK

Track  3

     Filename C:\Audio\Hank Mobley - Hank (1957) [FLAC] {2000 Japan Blue Note RVG}\03 - Easy To Love.wav

     Pre-gap length  0:00:02.88

     Peak level 99.7 %
     Track quality 100.0 %
     Test CRC 01D13578
     Copy CRC 01D13578
     Track not present in AccurateRip database
     Copy OK

Track  4

     Filename C:\Audio\Hank Mobley - Hank (1957) [FLAC] {2000 Japan Blue Note RVG}\04 - Time After Time.wav

     Pre-gap length  0:00:02.38

     Peak level 99.7 %
     Track quality 100.0 %
     Test CRC 016397DB
     Copy CRC 016397DB
     Track not present in AccurateRip database
     Copy OK

Track  5

     Filename C:\Audio\Hank Mobley - Hank (1957) [FLAC] {2000 Japan Blue Note RVG}\05 - Dance Of The Infidels.wav

     Pre-gap length  0:00:02.56

     Peak level 99.7 %
     Track quality 100.0 %
     Test CRC 10DC577D
     Copy CRC 10DC577D
     Track not present in AccurateRip database
     Copy OK

None of the tracks are present in the AccurateRip database

No errors occurred

End of status report
Обложки есть. Благодарности за релиз - Mazeppa (hqshare).

Трекер:  [ 28-Янв-2012 10:49 ]

  

Скачать .torrent

Размер .torrent файла 18 KB


Размер: 216 MB
Хэш (hash) релиза: b0b2de0aa29e0da076793840fc8906f3a87f98f0

Торренты, похожие на Hank Mobley - Hank скачать торрент

Форум Название Автор Размер S L Добавлен
Jazz, Blues (lossless) ·· (Hard Bop) Hank Mobley - Hank Mobley Quintet (RVG) - 1957, FLAC (tracks+.cue), lossless Umakiro 349397148333 MB 0 0 1327736774

10:46

28-Янв-12

Jazz, Blues (lossless) ·· (Hard Bop) Hank Mobley - Hank Mobley (Japan RVG) - 1957, FLAC (image+.cue), lossless Umakiro 161392466154 MB 0 0 1327736625

10:43

28-Янв-12

Jazz, Blues (lossless) ·· (Hard Bop) Hank Mobley - A Slice Of The Top {Blue Note} - 1966, FLAC (image+.cue), lossless Umakiro 260241905248 MB 0 0 1327752820

15:13

28-Янв-12

Jazz, Blues (lossless) ·· (Jazz/Hard-bop) Hank Mobley - Roll Call - {RVG Edition} - 1960, FLAC (tracks + .cue), lossless Umakiro 384884455367 MB 0 0 1327736947

10:49

28-Янв-12

Jazz, Blues (lossless) ·· (Jazz, Hard Bop) Hank Mobley - Workout - 2006, APE (image+.cue), lossless Umakiro 303712669290 MB 0 0 1327736799

10:46

28-Янв-12

Jazz, Blues (lossless) ·· (Hard Bop) Hank Mobley & Lee Morgan - Peckin' Time (RVG) - 1959, FLAC (image+.cue), lossless Umakiro 526123293502 MB 0 0 1327736750

10:45

28-Янв-12

Jazz, Blues (lossless) ·· (Hard Bop) Hank Mobley - No Room For Squares {RVG Edition} - 1963, FLAC (image+.cue), lossless Umakiro 340333443325 MB 0 0 1327736728

10:45

28-Янв-12

Jazz, Blues (lossless) ·· (Jazz/Hard Bop) Hank Mobley - The Turnaround! (RVG Edition) - 1999, FLAC (image+.cue), lossless Umakiro 272220369260 MB 0 0 1327736695

10:44

28-Янв-12

Jazz, Blues (lossless) ·· (Jazz/Hard Bop) Hank Mobley - Soul Station (RVG Edition) - 1999, FLAC (image+.cue), lossless Umakiro 283850184271 MB 0 0 1327736666

10:44

28-Янв-12

Jazz, Blues (lossless) ·· (Hard Bop) Hank Mobley - Hi Voltage {RVG Edition} - 1967, APE (image+.cue), lossless Umakiro 279724448267 MB 0 0 1327736591

10:43

28-Янв-12

Jazz, Blues (lossless) ·· (Hard Bop) Hank Mobley - Dippin' {RVG Edition} - 1965, APE (image+.cue), lossless Umakiro 297342057284 MB 0 0 1327736564

10:42

28-Янв-12

Jazz, Blues (lossless) ·· (Jazz, Hard Bop) Hank Mobley - Another Workout {RVG Edition} - 1961, APE (image+.cue), lossless Umakiro 238895103228 MB 0 0 1327736538

10:42

28-Янв-12

Jazz, Blues (lossless) ·· (Jazz) Curtis Fuller - The Opener - 1957 (with Hank Mobley & Art Taylor), FLAC (image+.cue), lossless Umakiro 233642766223 MB 0 0 1327727560

08:12

28-Янв-12

Еще никто не оставлял запись к записи скачать торрент Hank Mobley - Hank . Будь первым!

!Обратная связь