Скачать через торрент музыку Hank Mobley - Workout - 2006, APE бесплатно без регистрации torrent

Если у вас наблюдаются проблемы со скриншотами, переходом по ссылками, скачиванием торрентов - проблемы в блокировщике рекламы AdBlock. #хорошегоДня!


Статистика раздачи
Размер:  290 MB   |    Зарегистрирован:  5 лет 8 месяцев   |    .torrent скачан:  28 раз   |   
Раздают:  1  
   
Загрузка...
 
Автор Сообщение

Umakiro

avatar Umakiro


Hank Mobley - Workout

Жанр: Jazz, Hard Bop
Год выпуска диска: 2006
Производитель диска: Blue Note
Аудио кодек: APE
Тип рипа: image+.cue
Битрейт аудио: lossless
Продолжительность: 46:12
Трэклист:
01. Workout 10:00
02. Uh Huh 10:45
03. Smokin' 7:28
04. The Best Things in Life Are Free 5:16
05. Greasin' Easy 6:59
06. Three Coins in the Fountain 5:25
Exact Audio Copy V0.99 prebeta 4 from 23. January 2008

Отчёт EAC об извлечении, выполненном 9. февраля 2009, 13:55

Hank Mobley / Workout

Дисковод: ASUS - DRW-1814BLT Adapter: 2 ID: 0

Режим чтения : Достоверность
Использование точного потока : Да
Отключение кэша аудио : Да
Использование указателей C2 : Нет

Коррекция смещения при чтении : 6
Способность читать области Lead-in и Lead-out : Нет
Заполнение пропущенных сэмплов тишиной : Да
Удаление блоков с тишиной в начале и конце : Нет
При вычислениях CRC использовались нулевые сэмплы : Да
Интерфейс : Установленный внешний ASPI-интерфейс

Выходной формат : Внутренние WAV-операции
Формат сэмплов : 44.100 Гц; 16 бит; стерео

TOC извлечённого CD

Трек | Старт | Длительность | Начальный сектор | Конечный сектор
---------------------------------------------------------------------
1 | 0:00.00 | 10:03.37 | 0 | 45261
2 | 10:03.37 | 10:49.70 | 45262 | 94006
3 | 20:53.32 | 7:32.45 | 94007 | 127951
4 | 28:26.02 | 5:20.05 | 127952 | 151956
5 | 33:46.07 | 7:03.28 | 151957 | 183709
6 | 40:49.35 | 5:22.70 | 183710 | 207929

Характеристики диапазона извлечения и сообщения об ошибках

Выбранный диапазон

Имя файла D:\Hank Mobley - Workout.wav

Пиковый уровень 100.0 %
Качество диапазона 100.0 %
CRC копии 2D1A7A79
Копирование... OK

Ошибок не произошло

Конец отчёта
Started at: понедельник, 09. 02. 2009. - 14:02.42

1 file found

1 -===- D:\Раздача\My Music\Hank Mobley - Workout\Hank Mobley - Workout.ape
Extracted successfully
Conclusion: This track looks like CDDA with probability 100%
Tempfile successfully deleted.

Finished at: понедельник, 09. 02. 2009. - 14:08.46 (operation time: 0:06.03)


Трекер:  [ 28-Янв-2012 10:46 ]

  

Скачать .torrent

Размер .torrent файла 12 KB


Размер: 290 MB
Хэш (hash) релиза: a33faeb93b7bd3c7875ed3fcf55f3cefaf6e0e3e

Еще никто не оставлял запись к записи скачать торрент Hank Mobley - Workout - 2006, APE . Будь первым!

!Обратная связь