Скачать через торрент музыку Hank Mobley - Hank Mobley Quintet бесплатно без регистрации torrent

Если у вас наблюдаются проблемы со скриншотами, переходом по ссылками, скачиванием торрентов - проблемы в блокировщике рекламы AdBlock. #хорошегоДня!


Статистика раздачи
Размер:  333 MB   |    Зарегистрирован:  5 лет 8 месяцев   |    .torrent скачан:  28 раз   |   
Раздают:  1  
   
Загрузка...
 
Автор Сообщение

Umakiro

avatar Umakiro


Hank Mobley - Hank Mobley Quintet

Жанр: Hard Bop
Год выпуска диска: 1957
Производитель диска: Blue Note Records RVG Edition (50999 2 15388 2 7)
Аудио кодек: FLAC
Тип рипа: tracks+.cue
Битрейт аудио: lossless
Продолжительность: 57:19

Трэклист:
01. Funk in Deep Freeze
02. Wham and They're Off
03. Fin de l'Affaire
04. Startin' from Scratch
05. Stella-Wise
06. Base on Balls
07. Funk in Deep Freeze (alternate take)
08. Wham and They're Off (alternate take)

Personnel:
Art Farmer - trumpet,
Hank Mobley - tenor sax,
Horace Silver - piano,
Doug Watkins - bass,
Art Blakey - drums.

All compositions by Hank Mobley.
Originally recorded on March 8, 1957 at the Van Gelder Recording Studio, Hackensack, New Jersey.
This is a mono recording.
Remastered in 2008 by Rudy Van Gelder.
Tenor saxophonist Hank Mobley has been called underrated so many times that the word may as well have been his middle name, and when combined with the numerous financial, personal, and health issues the saxophonist endured during his career, it all added up to a middle of the pack position in the jazz canon. He truly deserves a reevaluation. This delightfully warm set was cut on March 8, 1957 with Mobley on tenor sax, Art Farmer on trumpet, Horace Silver on piano, Doug Watkins on bass, and the energetic and busy Art Blakey on drums, which makes for a pretty nice session band when all is said and done. All eight selections (two are bonus tracks, alternate versions of "Funk in Deep Freeze" and "Wham and They're Off") are original Mobley compositions and show off his -- you guessed it -- underrated writing and arranging ability. "Wham and They're Off" is an aptly named piece, bouncing breezily out of the box in both versions, while "Base on Balls" is wonderfully lazy and laconic, unwinding into a perfectly loose and soulful jam for a long summer's day. "Funk in Deep Freeze," by the way, seems more frozen than it is funk, but it's still fun. The bottom line is that this is a superior quintet working effortlessly together, and Mobley's concisely measured, round sax tone binds everything into a beautifully nuanced set. Mobley might not have been out there pushing the envelope with his instrument, but here he plays with confidence and lyrical economy, making this easily one of his best outings.

Код:

EAC extraction logfile from 29. September 2008, 19:26 for CD
Hank Mobley Quintet / Hank Mobley Quintet [RVG 2008]

Used drive  : ASUS    DRW-1608P2S   Adapter: 0  ID: 3
Read mode   : Secure with NO C2, accurate stream, disable cache
Read offset correction : 48
Overread into Lead-In and Lead-Out : Yes

Used output format : C:\Program Files\Exact Audio Copy\Plugins\flac.exe   (User Defined Encoder)
                     320 kBit/s
                     Additional command line options :  -V -8 -T "artist=%a" -T "title=%t" -T "album=%g" -T "date=%y" -T "tracknumber=%n" -T "genre=%m" -T "comment=EAC 095pb5 / Flac 1.1.2 -8" %s

Other options      :
    Fill up missing offset samples with silence : Yes
    Delete leading and trailing silent blocks : No
    Native Win32 interface for Win NT & 2000

Track  1
     Filename D:\Audio\lossless\Hank Mobley Quintet (1957) [RVG 2008]\01 - Funk In Deep Freeze.wav

     Pre-gap length  0:00:02.00

     Peak level 97.9 %
     Track quality 100.0 %
     Test CRC 02F87A48
     Copy CRC 02F87A48
     Copy OK

Track  2
     Filename D:\Audio\lossless\Hank Mobley Quintet (1957) [RVG 2008]\02 - Wham And They're Off.wav

     Pre-gap length  0:00:03.63

     Peak level 97.9 %
     Track quality 100.0 %
     Test CRC 8F162998
     Copy CRC 8F162998
     Copy OK

Track  3
     Filename D:\Audio\lossless\Hank Mobley Quintet (1957) [RVG 2008]\03 - Fin De L'Affaire.wav

     Pre-gap length  0:00:03.25

     Peak level 97.9 %
     Track quality 100.0 %
     Test CRC 36EA6CC7
     Copy CRC 36EA6CC7
     Copy OK

Track  4
     Filename D:\Audio\lossless\Hank Mobley Quintet (1957) [RVG 2008]\04 - Startin' From Scratch.wav

     Pre-gap length  0:00:02.66

     Peak level 97.9 %
     Track quality 100.0 %
     Test CRC CDA629DB
     Copy CRC CDA629DB
     Copy OK

Track  5
     Filename D:\Audio\lossless\Hank Mobley Quintet (1957) [RVG 2008]\05 - Stella-Wise.wav

     Pre-gap length  0:00:05.11

     Peak level 97.9 %
     Track quality 99.9 %
     Test CRC ADC74D4E
     Copy CRC ADC74D4E
     Copy OK

Track  6
     Filename D:\Audio\lossless\Hank Mobley Quintet (1957) [RVG 2008]\06 - Base On Balls.wav

     Pre-gap length  0:00:04.19

     Peak level 97.9 %
     Track quality 100.0 %
     Test CRC DD20D9CB
     Copy CRC DD20D9CB
     Copy OK

Track  7
     Filename D:\Audio\lossless\Hank Mobley Quintet (1957) [RVG 2008]\07 - Funk In Deep Freeze (Alternate Take).wav

     Pre-gap length  0:00:04.27

     Peak level 97.9 %
     Track quality 100.0 %
     Test CRC A2444387
     Copy CRC A2444387
     Copy OK

Track  8
     Filename D:\Audio\lossless\Hank Mobley Quintet (1957) [RVG 2008]\08 - Wham And They're Off (Alternate Take).wav

     Pre-gap length  0:00:02.23

     Peak level 97.9 %
     Track quality 100.0 %
     Test CRC 0E7AA9D7
     Copy CRC 0E7AA9D7
     Copy OK

No errors occured

End of status report
Обложки прилагаются. Благодарности за релиз - meszrum (hqshare).

Трекер:  [ 28-Янв-2012 10:46 ]

  

Скачать .torrent

Размер .torrent файла 14 KB


Размер: 333 MB
Хэш (hash) релиза: 8f4c7663aeabdb63706a9c836fc6d455d1398336

Еще никто не оставлял запись к записи скачать торрент Hank Mobley - Hank Mobley Quintet . Будь первым!

!Обратная связь