Скачать через торрент музыку Hank Mobley & Lee Morgan - Peckin Time бесплатно без регистрации torrent

Если у вас наблюдаются проблемы со скриншотами, переходом по ссылками, скачиванием торрентов - проблемы в блокировщике рекламы AdBlock. #хорошегоДня!


Статистика раздачи
Размер:  502 MB   |    Зарегистрирован:  5 лет 8 месяцев   |    .torrent скачан:  30 раз   |   
Раздают:  1  
   
Загрузка...
 
Автор Сообщение

Umakiro

avatar Umakiro


Hank Mobley & Lee Morgan - Peckin' Time

Жанр: Hard Bop
Год выпуска диска: 2008
Производитель диска: Blue Note-RVG (BLP 15367)
Аудио кодек: FLAC
Тип рипа: image+.cue
Битрейт аудио: lossless
Продолжительность: 62:19

Трэклист:
01. High and Flighty
02. Speak Low
03. Peckin' Time
04. Stretchin' Out
05. Git-Go Blues
06. High and Flighty (alternate take)
07. Speak Low (alternate take)
08. Stretchin' Out (alternate take)

Personnel:
Lee Morgan - trumpet
Hank Mobley - tenor sax
Wynton Kelly - piano
Paul Chambers - bass
Charlie Persip - drums

Recorded on February 9, 1958 at the Van Gelder Recording Studio, Hackensack, New Jersey.
Remastered in 2008 by Rudy Van Gelder.
Tenor saxophonist Hank Mobley was overshadowed by more influential tenors such as Sonny Rollins and John Coltrane during his career, but although he wasn't deliberately flashy or particularly innovative, his concisely measured, round sax tone made him the perfect ensemble player and he was a fine writer, as well, a talent who has often been undervalued and overlooked. The Peckin' Time session was recorded February 9, 1958 (the LP was issued a year later) and came in the midst of what was a period of whirlwind creativity for Mobley, who recorded work for the Savoy and Prestige imprints as well as six full albums for Blue Note (two were never released -- it was not that uncommon for Blue Note to stockpile sessions at the time) in a little more than a year's time (later Blue Note albums like Soul Station and Roll Call were still well in the future). For this session, Mobley found himself working with a young Lee Morgan on trumpet and in front of a fluid rhythm section that included pianist Wynton Kelly, bassist Paul Chambers, and drummer Charlie Persip, and it's solid stuff, bright and always energetic. All but one of the tracks, a rendering of Kurt Weill's "Speak Low," were written by Mobley, and again, his hidden strength was always his writing, and it should probably come as no surprise that the best two tracks here, the title tune "Peckin' Time" and the wonderful "Stretchin' Out," were both penned by Mobley. It all adds up to a fine program, and if Mobley didn't push the envelope a whole lot, his lyrical and economical playing was always appropriate and graceful, and that's certainly the case here.

Код:

Exact Audio Copy V0.99 prebeta 4 from 23. January 2008

EAC extraction logfile from 29. October 2008, 8:42

Hank Mobley / Peckin' Time

Used drive  : PHILIPS SPD3400CC   Adapter: 2  ID: 4

Read mode               : Secure
Utilize accurate stream : Yes
Defeat audio cache      : Yes
Make use of C2 pointers : No

Read offset correction                      : 6
Overread into Lead-In and Lead-Out          : No
Fill up missing offset samples with silence : Yes
Delete leading and trailing silent blocks   : No
Null samples used in CRC calculations       : Yes
Used interface                              : Installed external ASPI interface

Used output format : Internal WAV Routines
Sample format      : 44.100 Hz; 16 Bit; Stereo

TOC of the extracted CD

     Track |   Start  |  Length  | Start sector | End sector
    ---------------------------------------------------------
        1  |  0:00.00 |  6:09.51 |         0    |    27725
        2  |  6:09.51 |  7:12.31 |     27726    |    60156
        3  | 13:22.07 |  6:52.60 |     60157    |    91116
        4  | 20:14.67 |  9:04.20 |     91117    |   131936
        5  | 29:19.12 | 12:25.03 |    131937    |   187814
        6  | 41:44.15 |  6:35.18 |    187815    |   217457
        7  | 48:19.33 |  7:13.05 |    217458    |   249937
        8  | 55:32.38 |  6:46.53 |    249938    |   280440

Range status and errors

Selected range

     Filename C:\Hank Mobley - Peckin' Time\Hank Mobley - Peckin' Time.wav

     Peak level 97.9 %
     Range quality 100.0 %
     Test CRC 0D672F7E
     Copy CRC 0D672F7E
     Copy OK

No errors occurred

AccurateRip summary

Track  1  not present in database
Track  2  not present in database
Track  3  not present in database
Track  4  not present in database
Track  5  not present in database
Track  6  not present in database
Track  7  not present in database
Track  8  not present in database

None of the tracks are present in the AccurateRip database

End of status report
Обложки есть. Благодарности за релиз - tdelyon (hqshare).

Трекер:  [ 28-Янв-2012 10:45 ]

  

Скачать .torrent

Размер .torrent файла 20 KB


Размер: 502 MB
Хэш (hash) релиза: 2f69e7081f8c4bb570991cd695a11049da2dd117

Еще никто не оставлял запись к записи скачать торрент Hank Mobley & Lee Morgan - Peckin Time . Будь первым!

!Обратная связь