Скачать через торрент музыку Hank Mobley - No Room For Squares {RVG Edition} - 1963, FLAC бесплатно без регистрации torrent

Если у вас наблюдаются проблемы со скриншотами, переходом по ссылками, скачиванием торрентов - проблемы в блокировщике рекламы AdBlock. #хорошегоДня!


Статистика раздачи
Размер:  325 MB   |    Зарегистрирован:  5 лет 8 месяцев   |    .torrent скачан:  36 раз   |   
Раздают:  1  
   
Загрузка...
 
Автор Сообщение

Umakiro

avatar Umakiro


Hank Mobley - No Room For Squares {RVG Edition}

Жанр: Hard Bop
Год выпуска диска: 1963
Производитель диска: USA
Аудио кодек: FLAC
Тип рипа: image+.cue
Битрейт аудио: lossless
Продолжительность: 54:37
Лейбл: Blue Note
Источник: NoNaMe

Трэклист:
1. Three Way Split
2. Carolyn
3. Up A Step
4. No Room For Squares
5. Me 'N' You
6. Old World, New Imports
7. Carolyn (alt. take)
8. No Room For Squares (alt. take)

Музыканты:
Hank Mobley - tenor sax
Lee Morgan, Donald Byrd - trumpet
Andrew Hill, Herbie Hancock - piano
Butch Warren, John Ore - bass
Philly Joe Jones - drums

Originally recorded on March 7 & October 2, 1963 at the Van Gelder Studio, Englewood Cliffs, New Jersey
Remastered in 2000 by Rudy Van Gelder
 
Exact Audio Copy V0.99 prebeta 3 from 28. July 2007

Отчёт EAC об извлечении, выполненном 9. августа 2008, 15:14

Hank Mobley / No Room For Squares

Дисковод: _NEC DVD_RW ND-3540A Adapter: 2 ID: 0

Режим чтения : ДостоверностьИспользование точного потока : ДаОтключение кэша аудио : ДаИспользование указателей C2 : Нет

Коррекция смещения при чтении : 48Способность читать области Lead-in и Lead-out : НетЗаполнение пропущенных сэмплов тишиной : ДаУдаление блоков с тишиной в начале и конце : НетПри вычислениях CRC использовались нулевые сэмплы : ДаИнтерфейс : Установленный внешний ASPI-интерфейс

Выходной формат : Пользовательский кодировщикВыбранный битрейт : 768 kBit/sКачество : ВысокийДобавление ID3-тэга : ДаУтилита сжатия : C:\Program Files\Exact Audio Copy\FLAC\FLAC.EXEДополнительные параметры : -6 -V -T "ARTIST=%a" -T "TITLE=%t" -T "ALBUM=%g" -T "DATE=%y" -T "TRACKNUMBER=%n" -T "GENRE=%m" -T "COMMENT=%e" %s -o %d

TOC извлечённого CD

Трек | Старт | Длительность | Начальный сектор | Конечный сектор --------------------------------------------------------------------- 1 | 0:00.00 | 7:49.61 | 0 | 35235 2 | 7:49.61 | 5:30.49 | 35236 | 60034 3 | 13:20.35 | 8:31.64 | 60035 | 98423 4 | 21:52.24 | 6:57.54 | 98424 | 129752 5 | 28:50.03 | 7:17.52 | 129753 | 162579 6 | 36:07.55 | 6:08.24 | 162580 | 190203 7 | 42:16.04 | 5:35.19 | 190204 | 215347 8 | 47:51.23 | 6:45.65 | 215348 | 245787

Характеристики диапазона извлечения и сообщения об ошибках

Выбранный диапазон

Имя файла C:\Documents and Settings\Миша\Мои документы\Hank Mobley - No Room For Squares\Hank Mobley - No Room For Squares.wav

Пиковый уровень 97.9 % Качество диапазона 99.9 % CRC копии 5531F0D2 Копирование... OK

Ошибок не произошло

AccurateRip: сводка

Трек 1 точное извлечение (доверие 10) [7588559E]Трек 2 точное извлечение (доверие 10) [2B0A0C84]Трек 3 точное извлечение (доверие 10) [2ADC3434]Трек 4 точное извлечение (доверие 10) [B07CB441]Трек 5 точное извлечение (доверие 10) [0E47AE8D]Трек 6 точное извлечение (доверие 10) [E02DBF6D]Трек 7 точное извлечение (доверие 10) [7227701E]Трек 8 точное извлечение (доверие 10) [0AFE371E]

Все треки извлечены точно

Конец отчёта
 
AUDIOCHECKER v1.2 - by Dester - opdester@freemail.hu~~~~~~~~~~~~~~~~~

1 -===- E:\Up-Down\Hank Mobley - No Room For Squares\Hank Mobley - No Room For Squares.flac Extracted successfully Conclusion: This track looks like CDDA with probability 100%


Трекер:  [ 28-Янв-2012 10:45 ]

  

Скачать .torrent

Размер .torrent файла 13 KB


Размер: 325 MB
Хэш (hash) релиза: 71a48fdfffb1d8e478a5971b1c54c3cd02f5d2af

Еще никто не оставлял запись к записи скачать торрент Hank Mobley - No Room For Squares {RVG Edition} - 1963, FLAC . Будь первым!

!Обратная связь