Скачать через торрент музыку Hank Mobley - The Turnaround! бесплатно без регистрации torrent

Если у вас наблюдаются проблемы со скриншотами, переходом по ссылками, скачиванием торрентов - проблемы в блокировщике рекламы AdBlock. #хорошегоДня!


Статистика раздачи
Размер:  260 MB   |    Зарегистрирован:  5 лет 8 месяцев   |    .torrent скачан:  25 раз   |   
Раздают:  1  
   
Загрузка...
 
Автор Сообщение

Umakiro

avatar Umakiro


Hank Mobley
The Turnaround!

Жанр: Jazz/Hard Bop
Год выпуска диска: 1999
Производитель диска: USA/BLUE NOTE
Аудио кодек: FLAC
Тип рипа: image+.cue
Битрейт аудио: lossless
Продолжительность: 40:24

Трэклист:

01. "The Turnaround" 8:14
02. "East Of The Village" 6:42
03. "The Good Life" 5:06
04. "Straight Ahead" 7:00
05. "My Sin" 6:50
06. "Pat 'n Chat" 6:27

Доп. информация:

Freddie Hubbard, trumpet
Hank Mobley, tenor saxophone
Barry Harris, piano
Paul Chambers, bass
Billy Higgins, drums
+
Donald Byrd, trumpet
Hank Mobley, tenor saxophone
Herbie Hancock, piano
Butch Warren, bass
Philly Joe Jones, drums

Recorded on March 7, 1963 (#2 & 3) and February 5, 1965 (all others) at the Van Gelder Studio
Original recording and remastering by Rudy Van Gelder
All transfers from analog to digital were made at 24-bit resolution

Наименование и длительность треков - в соответствие с данными на обложке.
Рип с родного диска, сканы помещены в раздачу.* * *
Exact Audio Copy V0.99 prebeta 5 from 4. May 2009

Отчёт EAC об извлечении, выполненном 27. августа 2009, 0:59

Hank Mobley / The Turnaround

Дисковод: PIONEER DVD-RW DVR-217F Adapter: 0 ID: 1

Режим чтения : Достоверность
Использование точного потока : Да
Отключение кэша аудио : Да
Использование указателей C2 : Нет

Коррекция смещения при чтении : 96
Способность читать области Lead-in и Lead-out : Нет
Заполнение пропущенных сэмплов тишиной : Да
Удаление блоков с тишиной в начале и конце : Нет
При вычислениях CRC использовались нулевые сэмплы : Да
Интерфейс : Установленный внешний ASPI-интерфейс

Выходной формат : Пользовательский кодировщик
Выбранный битрейт : 128 kBit/s
Качество : Высокий
Добавление ID3-тэга : Нет
Утилита сжатия : C:\Program Files\FLAC\FLAC frontend.exe
Дополнительные параметры : -8 -V %s

TOC извлечённого CD

Трек | Старт | Длительность | Начальный сектор | Конечный сектор
---------------------------------------------------------------------
1 | 0:00.00 | 8:15.65 | 0 | 37189
2 | 8:15.65 | 6:44.16 | 37190 | 67505
3 | 15:00.06 | 5:08.72 | 67506 | 90677
4 | 20:09.03 | 7:02.70 | 90678 | 122397
5 | 27:11.73 | 6:53.23 | 122398 | 153395
6 | 34:05.21 | 6:27.32 | 153396 | 182452

Характеристики диапазона извлечения и сообщения об ошибках

Выбранный диапазон

Имя файла C:\Torrent\Новая папка\Hank Mobley - The Turnaround.wav

Пиковый уровень 97.9 %
Качество диапазона 99.9 %
CRC теста 83C27452
CRC копии 83C27452
Копирование... OK

Ошибок не произошло

AccurateRip: сводка

Трек 1 точность не определена (достоверность 9) [7FD0AC1F], AccurateRip вернул [803E9B87]
Трек 2 точность не определена (достоверность 9) [101AC12A], AccurateRip вернул [6E2F9522]
Трек 3 точность не определена (достоверность 9) [E761DD8B], AccurateRip вернул [A9136DCB]
Трек 4 точность не определена (достоверность 9) [BA728B90], AccurateRip вернул [4F5DD9A0]
Трек 5 точность не определена (достоверность 9) [B363E926], AccurateRip вернул [711CE1DE]
Трек 6 точность не определена (достоверность 9) [2CEA9680], AccurateRip вернул [38034140]

Ни один трек не прошёл проверки на точность
В вашей базе может быть иной вариант штамповки диска

Конец отчёта


Трекер:  [ 28-Янв-2012 10:44 ]

  

Скачать .torrent

Размер .torrent файла 11 KB


Размер: 260 MB
Хэш (hash) релиза: e3d6c97d11a32e73f07b797e0a34f04c276b368f

Еще никто не оставлял запись к записи скачать торрент Hank Mobley - The Turnaround! . Будь первым!

!Обратная связь