Скачать через торрент музыку Hank Mobley - Soul Station бесплатно без регистрации torrent

Если у вас наблюдаются проблемы со скриншотами, переходом по ссылками, скачиванием торрентов - проблемы в блокировщике рекламы AdBlock. #хорошегоДня!


Статистика раздачи
Размер:  271 MB   |    Зарегистрирован:  5 лет 8 месяцев   |    .torrent скачан:  23 раза   |   
Раздают:  1  
   
Загрузка...
 
Автор Сообщение

Umakiro

avatar Umakiro


Hank Mobley
Soul Station

Жанр: Jazz/Hard Bop
Год выпуска диска: 1999
Производитель диска: USA/BLUE NOTE
Аудио кодек: FLAC
Тип рипа: image+.cue
Битрейт аудио: lossless
Продолжительность: 37:27

Трэклист:

01. "Remember" 5:38
02. "This I Dig of You" 6:21
03. "Dig Dis" 6:05
04. "Split Feelin's" 4:52
05. "Soul Station" 9:03
06. "If I Should Lose You" 5:08

Доп. информация:

Hank Mobley, tenor saxophone
Wynton Kelly, piano
Paul Chambers, bass
Art Blakey, drums

Recorded on February 7, 1960 at the Van Gelder Studio
Original recorded and remastered in 1998 by Rudy Van Gelder
All transfers from analog to digital were made at 24-bit resolution

Наименование и длительность треков - в соответствие с данными на обложке.
Рип с родного диска, сканы помещены в раздачу.* * *
Exact Audio Copy V0.99 prebeta 5 from 4. May 2009

Отчёт EAC об извлечении, выполненном 27. августа 2009, 1:16

Hank Mobley / Soul Station

Дисковод: PIONEER DVD-RW DVR-217F Adapter: 0 ID: 1

Режим чтения : Достоверность
Использование точного потока : Да
Отключение кэша аудио : Да
Использование указателей C2 : Нет

Коррекция смещения при чтении : 96
Способность читать области Lead-in и Lead-out : Нет
Заполнение пропущенных сэмплов тишиной : Да
Удаление блоков с тишиной в начале и конце : Нет
При вычислениях CRC использовались нулевые сэмплы : Да
Интерфейс : Установленный внешний ASPI-интерфейс

Выходной формат : Пользовательский кодировщик
Выбранный битрейт : 128 kBit/s
Качество : Высокий
Добавление ID3-тэга : Нет
Утилита сжатия : C:\Program Files\FLAC\FLAC frontend.exe
Дополнительные параметры : -8 -V %s

TOC извлечённого CD

Трек | Старт | Длительность | Начальный сектор | Конечный сектор
---------------------------------------------------------------------
1 | 0:00.00 | 5:42.25 | 0 | 25674
2 | 5:42.25 | 6:25.65 | 25675 | 54614
3 | 12:08.15 | 6:09.29 | 54615 | 82318
4 | 18:17.44 | 4:55.51 | 82319 | 104494
5 | 23:13.20 | 9:07.32 | 104495 | 145551
6 | 32:20.52 | 5:08.39 | 145552 | 168690

Характеристики диапазона извлечения и сообщения об ошибках

Выбранный диапазон

Имя файла C:\Torrent\Новая папка (2)\Hank Mobley - Soul Station.wav

Пиковый уровень 97.9 %
Качество диапазона 100.0 %
CRC теста C1C65BE7
CRC копии C1C65BE7
Копирование... OK

Ошибок не произошло

AccurateRip: сводка

Трек 1 точность не определена (достоверность 33) [06543D91], AccurateRip вернул [20E82C41]
Трек 2 точность не определена (достоверность 33) [7072DD97], AccurateRip вернул [9F4A333F]
Трек 3 точность не определена (достоверность 33) [CB01811D], AccurateRip вернул [818A4785]
Трек 4 точность не определена (достоверность 33) [B101ACF9], AccurateRip вернул [BE5E3479]
Трек 5 точность не определена (достоверность 33) [C8DD0F1B], AccurateRip вернул [49B5F3C3]
Трек 6 точность не определена (достоверность 32) [0D0D1B0D], AccurateRip вернул [407517A5]

Ни один трек не прошёл проверки на точность
В вашей базе может быть иной вариант штамповки диска

Конец отчёта


Трекер:  [ 28-Янв-2012 10:44 ]

  

Скачать .torrent

Размер .torrent файла 11 KB


Размер: 271 MB
Хэш (hash) релиза: f191d1bb362d9043986d9d71f672d140b5ce4357

Еще никто не оставлял запись к записи скачать торрент Hank Mobley - Soul Station . Будь первым!

!Обратная связь