Скачать через торрент музыку Hank Mobley - Hi Voltage {RVG Edition} - 1967, APE бесплатно без регистрации torrent

Если у вас наблюдаются проблемы со скриншотами, переходом по ссылками, скачиванием торрентов - проблемы в блокировщике рекламы AdBlock. #хорошегоДня!


Статистика раздачи
Размер:  267 MB   |    Зарегистрирован:  5 лет 8 месяцев   |    .torrent скачан:  30 раз   |   
Раздают:  1  
   
Загрузка...
 
Автор Сообщение

Umakiro

avatar Umakiro


Hank Mobley - Hi Voltage {RVG Edition}

Жанр: Hard Bop
Год выпуска диска: 1967
Производитель диска: UK
Аудио кодек: APE
Тип рипа: image+.cue
Битрейт аудио: lossless
Продолжительность: 40:18
Лейбл: Blue Note
Источник: собственный рип, full scan 300dpi

Трэклист:
1 High Voltage
2 Two and One
3 No More Goodbys
4 Advance Notion
5 Bossa De Luxe
6 Flirty Gerty

Музыканты:
Blue Mitchel, trumpet
Jackie McLean, alto sax
Hank Mobley, tenor sax
John Hicks, piano
Bob Cranshaw, bass
Billy Higgins, drums

Originally recorded on October 9, 1967 at the Van Gelder Studio, Englewood Cliffs, New Jersey
Remastered in 2004 by Rudy Van Gelder
 
Exact Audio Copy V0.99 prebeta 4 from 23. January 2008

Отчёт EAC об извлечении, выполненном 24. августа 2009, 15:50

Hank Mobley / Hi Voltage

Дисковод: Optiarc DVD RW AD-7200A Adapter: 3 ID: 1

Режим чтения : ДостоверностьИспользование точного потока : ДаОтключение кэша аудио : ДаИспользование указателей C2 : Нет

Коррекция смещения при чтении : 48Способность читать области Lead-in и Lead-out : НетЗаполнение пропущенных сэмплов тишиной : ДаУдаление блоков с тишиной в начале и конце : НетПри вычислениях CRC использовались нулевые сэмплы : ДаИнтерфейс : Установленный внешний ASPI-интерфейс

Выходной формат : Внутренние WAV-операцииФормат сэмплов : 44.100 Гц; 16 бит; стерео

TOC извлечённого CD

Трек | Старт | Длительность | Начальный сектор | Конечный сектор --------------------------------------------------------------------- 1 | 0:00.00 | 8:07.23 | 0 | 36547 2 | 8:07.23 | 6:07.23 | 36548 | 64095 3 | 14:14.46 | 5:39.31 | 64096 | 89551 4 | 19:54.02 | 5:55.34 | 89552 | 116210 5 | 25:49.36 | 7:29.64 | 116211 | 149949 6 | 33:19.25 | 6:58.52 | 149950 | 181351

Характеристики диапазона извлечения и сообщения об ошибках

Выбранный диапазон

Имя файла E:\Up-Down\Hank Mobley - Hi Voltage\Hank Mobley - Hi Voltage.wav

Пиковый уровень 97.9 % Качество диапазона 100.0 % CRC копии 26B8AFF1 Копирование... OK

Ошибок не произошло

Конец отчёта
 
AUDIOCHECKER v1.2 - by Dester - opdester@freemail.hu~~~~~~~~~~~~~~~~~

1 -===- E:\Up-Down\Hank Mobley - Hi Voltage\Hank Mobley - Hi Voltage.ape Extracted successfully Conclusion: This track looks like CDDA with probability 100%


Трекер:  [ 28-Янв-2012 10:43 ]

  

Скачать .torrent

Размер .torrent файла 11 KB


Размер: 267 MB
Хэш (hash) релиза: 2f458592b21a9175020063d014b122ed5b54c27f

Еще никто не оставлял запись к записи скачать торрент Hank Mobley - Hi Voltage {RVG Edition} - 1967, APE . Будь первым!

!Обратная связь