Скачать через торрент музыку Hank Mobley - Another Workout {RVG Edition} - 1961, APE бесплатно без регистрации torrent

Если у вас наблюдаются проблемы со скриншотами, переходом по ссылками, скачиванием торрентов - проблемы в блокировщике рекламы AdBlock. #хорошегоДня!


Статистика раздачи
Размер:  228 MB   |    Зарегистрирован:  5 лет 8 месяцев   |    .torrent скачан:  28 раз   |   
Раздают:  1  
   
Загрузка...
 
Автор Сообщение

Umakiro

avatar Umakiro


Hank Mobley - Another Workout {RVG Edition}

Жанр: Hard Bop
Год выпуска диска: 1961
Производитель диска: USA
Аудио кодек: APE
Тип рипа: image+.cue
Битрейт аудио: lossless
Продолжительность: 37:20
Лейбл: Blue Note
Источник: собственный рип, full scan 300dpi

Трэклист:
1 Out of Joe's Bag
2 I Should Care
3 Gettin' and Jettin'
4 Hank's Other Soul
5 Hello Young Lovers

Музыканты:
Hank Mobley, tenor sax
Wynton Kelly, piano
Paul Chambers, bass
Philly Joe Jones, drums

Originally recorded on December 5, 1961 at the Van Gelder Studio, Englewood Cliffs, New Jersey
Remastered in 2006 by Rudy Van Gelder
Exact Audio Copy V0.99 prebeta 4 from 23. January 2008

Отчёт EAC об извлечении, выполненном 23. августа 2009, 11:27

Hank Mobley / Another Workout

Дисковод: Optiarc DVD RW AD-7200A Adapter: 3 ID: 1

Режим чтения : Достоверность
Использование точного потока : Да
Отключение кэша аудио : Да
Использование указателей C2 : Нет

Коррекция смещения при чтении : 48
Способность читать области Lead-in и Lead-out : Нет
Заполнение пропущенных сэмплов тишиной : Да
Удаление блоков с тишиной в начале и конце : Нет
При вычислениях CRC использовались нулевые сэмплы : Да
Интерфейс : Установленный внешний ASPI-интерфейс

Выходной формат : Внутренние WAV-операции
Формат сэмплов : 44.100 Гц; 16 бит; стерео

TOC извлечённого CD

Трек | Старт | Длительность | Начальный сектор | Конечный сектор
---------------------------------------------------------------------
1 | 0:00.00 | 5:07.72 | 0 | 23096
2 | 5:07.72 | 7:41.62 | 23097 | 57733
3 | 12:49.59 | 7:43.54 | 57734 | 92512
4 | 20:33.38 | 8:42.58 | 92513 | 131720
5 | 29:16.21 | 8:03.71 | 131721 | 168016

Характеристики диапазона извлечения и сообщения об ошибках

Выбранный диапазон

Имя файла E:\Up-Down\Hank Mobley - Another Workout\Hank Mobley - Another Workout.wav

Пиковый уровень 97.9 %
Качество диапазона 100.0 %
CRC копии F47481DC
Копирование... OK

Ошибок не произошло

AccurateRip: сводка

Трек 1 точное извлечение (доверие 14) [4BFE2D5D]
Трек 2 точное извлечение (доверие 15) [5A13B0E5]
Трек 3 точное извлечение (доверие 14) [8343A666]
Трек 4 точное извлечение (доверие 14) [454079E6]
Трек 5 точное извлечение (доверие 13) [738A48A3]

Все треки извлечены точно

Конец отчёта


Трекер:  [ 28-Янв-2012 10:42 ]

  

Скачать .torrent

Размер .torrent файла 18 KB


Размер: 228 MB
Хэш (hash) релиза: 6eca8acaa48b8edac756de2339321a9985457823

Еще никто не оставлял запись к записи скачать торрент Hank Mobley - Another Workout {RVG Edition} - 1961, APE . Будь первым!

!Обратная связь