Скачать через торрент музыку Gil Melle - Patterns In Jazz бесплатно без регистрации torrent

Если у вас наблюдаются проблемы со скриншотами, переходом по ссылками, скачиванием торрентов - проблемы в блокировщике рекламы AdBlock. #хорошегоДня!


Статистика раздачи
Размер:  146 MB   |    Зарегистрирован:  5 лет 8 месяцев   |    .torrent скачан:  25 раз   |   
Раздают:  1  
   
Загрузка...
 
Автор Сообщение

Umakiro

avatar Umakiro


Gil Melle - Patterns In Jazz (1956 mono) 24 bit by R.V.G. Blue Note

Жанр: bop / cool / Third Stream
Год выпуска диска: 2004
Производитель диска: Blue Note/Toshiba-Emi TOCJ 9581 (Japan)
Аудио кодек: FLAC
Тип рипа: tracks+.cue
Битрейт аудио: lossless
Продолжительность: 00 : 37 : 00
Трэклист:
01. The Set Break (4:51)
02. Weird Valley (5:16)
03. The Arab Barber Blues (9:07)
04. Nice Question (8:18)
05. Moonlight In Vermont (4:55)
06. Long Ago And Far Away (4:33)
Состав :
Gil Melle - baritone sax
Eddie Bert - trombone
Joe Cinderella - guitar
Oscar Pettiford - bass
Ed Thigpen - drums
Exact Audio Copy V0.99 prebeta 5 from 4. May 2009

Отчёт EAC об извлечении, выполненном 25. мая 2010, 17:37

Gil Melle / Patterns In Jazz

Дисковод: SONY DVD RW DRX-S70U Adapter: 1 ID: 0

Режим чтения : Достоверность
Использование точного потока : Да
Отключение кэша аудио : Да
Использование указателей C2 : Нет

Коррекция смещения при чтении : 48
Способность читать области Lead-in и Lead-out : Нет
Заполнение пропущенных сэмплов тишиной : Да
Удаление блоков с тишиной в начале и конце : Нет
При вычислениях CRC использовались нулевые сэмплы : Да
Интерфейс : Встроенный Win32-интерфейс для Win NT/2000
Обработка зазоров : Добавлено к предыдущему треку

Выходной формат : Пользовательский кодировщик
Выбранный битрейт : 768 kBit/s
Качество : Высокий
Добавление ID3-тэга : Да
Утилита сжатия : H:\Program Files\Exact Audio Copy\Flac\flac.exe
Дополнительные параметры : -6 -V -T "ARTIST=%a" -T "TITLE=%t" -T "ALBUM=%g" -T "DATE=%y" -T "TRACKNUMBER=%n" -T "GENRE=%m" -T "COMMENT=%e" %s -o %d

TOC извлечённого CD

Трек | Старт | Длительность | Начальный сектор | Конечный сектор
---------------------------------------------------------------------
1 | 0:00.00 | 4:50.42 | 0 | 21791
2 | 4:50.42 | 5:15.42 | 21792 | 45458
3 | 10:06.09 | 9:07.24 | 45459 | 86507
4 | 19:13.33 | 8:18.04 | 86508 | 123861
5 | 27:31.37 | 4:55.06 | 123862 | 145992
6 | 32:26.43 | 4:33.35 | 145993 | 166502

Трек 1

Имя файла F:\Gil Melle\[01]The Set Break.wav

Длина предзазора 0:00:02.00

Пиковый уровень 97.9 %
Качество трека 99.9 %
CRC теста 190BB749
CRC копии 190BB749
Трек не обнаружен в базе AccurateRip
Копирование... OK

Трек 2

Имя файла F:\Gil Melle\[02]Weird Valley.wav

Длина предзазора 0:00:02.94

Пиковый уровень 94.9 %
Качество трека 100.0 %
CRC теста 576D8FC9
CRC копии 576D8FC9
Трек не обнаружен в базе AccurateRip
Копирование... OK

Трек 3

Имя файла F:\Gil Melle\[03]The Arab Barber Blues.wav

Длина предзазора 0:00:02.25

Пиковый уровень 97.4 %
Качество трека 100.0 %
CRC теста E72E8FE1
CRC копии E72E8FE1
Трек не обнаружен в базе AccurateRip
Копирование... OK

Трек 4

Имя файла F:\Gil Melle\[04]Nice Question.wav

Длина предзазора 0:00:03.01

Пиковый уровень 94.8 %
Качество трека 100.0 %
CRC теста A6703F3B
CRC копии A6703F3B
Трек не обнаружен в базе AccurateRip
Копирование... OK

Трек 5

Имя файла F:\Gil Melle\[05]Moonlight In Vermont.wav

Длина предзазора 0:00:02.13

Пиковый уровень 97.7 %
Качество трека 100.0 %
CRC теста D4213EE6
CRC копии D4213EE6
Трек не обнаружен в базе AccurateRip
Копирование... OK

Трек 6

Имя файла F:\Gil Melle\[06]Long Ago And Far Away.wav

Длина предзазора 0:00:02.76

Пиковый уровень 96.9 %
Качество трека 100.0 %
CRC теста C9E8600D
CRC копии C9E8600D
Трек не обнаружен в базе AccurateRip
Копирование... OK

Ни одного трека нет в базе AccurateRip

Ошибок не произошло

Конец отчёта
AUDIOCHECKER v2.0 beta (build 457) - by Dester - opdester@freemail.hu
~~~~~~~~~~~~~~~~~~~~~~~~~~~~~~~~~~
-=== НЕ РЕДАКТИРУЙТЕ ЭТОТ ФАЙЛ! ===-

Путь: ...\Gil Melle

1 -=- [01]The Set Break.flac -=- CDDA (100%)
2 -=- [02]Weird Valley.flac -=- CDDA (100%)
3 -=- [03]The Arab Barber Blues.flac -=- CDDA (100%)
4 -=- [04]Nice Question.flac -=- CDDA (100%)
5 -=- [05]Moonlight In Vermont.flac -=- CDDA (100%)
6 -=- [06]Long Ago And Far Away.flac -=- CDDA (100%)

Сводка 100,00% CDDA

24780932

Код:

REM GENRE Jazz
REM DATE 1956
REM DISCID 4E08AC06
REM COMMENT "ExactAudioCopy v0.99pb5"
PERFORMER "Gil Melle"
TITLE "Patterns In Jazz"
FILE "[01]The Set Break.wav" WAVE
  TRACK 01 AUDIO
    TITLE "The Set Break"
    PERFORMER "Gil Melle"
    INDEX 01 00:00:00
  TRACK 02 AUDIO
    TITLE "Weird Valley"
    PERFORMER "Gil Melle"
    INDEX 00 04:47:46
FILE "[02]Weird Valley.wav" WAVE
    INDEX 01 00:00:00
  TRACK 03 AUDIO
    TITLE "The Arab Barber Blues"
    PERFORMER "Gil Melle"
    INDEX 00 05:13:23
FILE "[03]The Arab Barber Blues.wav" WAVE
    INDEX 01 00:00:00
  TRACK 04 AUDIO
    TITLE "Nice Question"
    PERFORMER "Gil Melle"
    INDEX 00 09:04:23
FILE "[04]Nice Question.wav" WAVE
    INDEX 01 00:00:00
  TRACK 05 AUDIO
    TITLE "Moonlight In Vermont"
    PERFORMER "Gil Melle"
    INDEX 00 08:15:69
FILE "[05]Moonlight In Vermont.wav" WAVE
    INDEX 01 00:00:00
  TRACK 06 AUDIO
    TITLE "Long Ago And Far Away"
    PERFORMER "Gil Melle"
    INDEX 00 04:52:24
FILE "[06]Long Ago And Far Away.wav" WAVE
    INDEX 01 00:00:00
рип мой с оригинального cd из моей коллекции .

Трекер:  [ 28-Янв-2012 10:39 ]

  

Скачать .torrent

Размер .torrent файла 12 KB


Размер: 146 MB
Хэш (hash) релиза: 2ede02f4fdc3e3b44460b7b609fc4654b91c1a5d

Еще никто не оставлял запись к записи скачать торрент Gil Melle - Patterns In Jazz . Будь первым!

!Обратная связь