Скачать через торрент музыку Freddie Redd Quartet with Jackie McLean The music from " The connection" - 1961, AP бесплатно без регистрации torrent

Если у вас наблюдаются проблемы со скриншотами, переходом по ссылками, скачиванием торрентов - проблемы в блокировщике рекламы AdBlock. #хорошегоДня!


Статистика раздачи
Размер:  183 MB   |    Зарегистрирован:  5 лет 8 месяцев   |    .torrent скачан:  29 раз   |   
Раздают:  1  
   
Загрузка...
 
Автор Сообщение

Umakiro

avatar Umakiro


Freddie Redd Quartet with Jackie McLean - The music from " The connection"

Жанр: Jazz
Год выпуска диска: 1961
Производитель диска: Japan
Аудио кодек: APE
Тип рипа: image+.cue
Битрейт аудио: lossless
Продолжительность: 34:09:64
Трэклист:
1. Freddie Redd - Who Killed Cock Robin (5:22)
2. Freddie Redd - Wigglin' (5:59)
3. Freddie Redd - Music Forever (5:54)
4. Freddie Redd - Time To Smile (6:26)
5. Freddie Redd - Theme For Sister-Salvation (4:46)
6. Freddie Redd - Jim Dunn's Dilema (5:39)
7. Freddie Redd - O.D. (Overdose) (4:42)
Exact Audio Copy V0.99 prebeta 4 from 23. January 2008

Отчёт EAC об извлечении, выполненном 16. декабря 2008, 20:35

Freddie redd quartet with Jackie McLean / The connection

Дисковод: Optiarc DVD RW AD-7200A Adapter: 1 ID: 0

Режим чтения : Достоверность
Использование точного потока : Да
Отключение кэша аудио : Да
Использование указателей C2 : Нет

Коррекция смещения при чтении : 48
Способность читать области Lead-in и Lead-out : Нет
Заполнение пропущенных сэмплов тишиной : Да
Удаление блоков с тишиной в начале и конце : Нет
При вычислениях CRC использовались нулевые сэмплы : Да
Интерфейс : Встроенный Win32-интерфейс для Win NT/2000

Выходной формат : Внутренние WAV-операции
Формат сэмплов : 44.100 Гц; 16 бит; стерео

TOC извлечённого CD

Трек | Старт | Длительность | Начальный сектор | Конечный сектор
---------------------------------------------------------------------
1 | 0:00.00 | 5:22.55 | 0 | 24204
2 | 5:22.55 | 5:59.28 | 24205 | 51157
3 | 11:22.08 | 5:54.69 | 51158 | 77776
4 | 17:17.02 | 6:26.63 | 77777 | 106789
5 | 23:43.65 | 4:46.51 | 106790 | 128290
6 | 28:30.41 | 5:39.23 | 128291 | 153738
7 | 34:09.64 | 4:42.08 | 153739 | 174896

Характеристики диапазона извлечения и сообщения об ошибках

Выбранный диапазон

Имя файла E:\рипы\Freddie redd quartet with Jackie McLean - The connection.wav

Пиковый уровень 97.9 %
Качество диапазона 100.0 %
CRC теста FC77496D
CRC копии FC77496D
Копирование... OK

Ошибок не произошло

Конец отчёта


Трекер:  [ 28-Янв-2012 10:38 ]

  

Скачать .torrent

Размер .torrent файла 15 KB


Размер: 183 MB
Хэш (hash) релиза: 2d8d14d361367094025be7be418759061500bf52

Еще никто не оставлял запись к записи скачать торрент Freddie Redd Quartet with Jackie McLean The music from " The connection" - 1961, AP . Будь первым!

!Обратная связь