Скачать через торрент музыку Freddie Redd Quintet - Shades of Redd бесплатно без регистрации torrent

Если у вас наблюдаются проблемы со скриншотами, переходом по ссылками, скачиванием торрентов - проблемы в блокировщике рекламы AdBlock. #хорошегоДня!


Статистика раздачи
Размер:  370 MB   |    Зарегистрирован:  5 лет 8 месяцев   |    .torrent скачан:  27 раз   |   
Раздают:  1  
   
Загрузка...
 
Автор Сообщение

Umakiro

avatar Umakiro


Freddie Redd Quintet - Shades of Redd

Жанр: Hard Bop
Год выпуска диска: 1960
Производитель диска: Blue Note RVG Remaster (50999 5 14375 2 7)
Аудио кодек: FLAC
Тип рипа: image+.cue
Битрейт аудио: lossless
Продолжительность: 53:23

Трэклист:
01. The Thespian
02. Blues-Blues-Blues
03. Shadows
04. Melanie
05. Swift
06. Just a Ballad for My Baby
07. Ole
08. Melanie (alternate take)
09. Ole (alternate take)

Personnel:
Jackie McLean - alto sax,
Tina Brooks - tenor sax,
Freddie Redd - piano,
Paul Chambers - bass,
Louis Hayes - drums.

All compositions by Freddie Redd.
Originally recorded on August 13, 1960 at the Van Gelder Studio, Englewood Cliffs, New Jersey.
Remastered in 2007 by Rudy Van Gelder.
In an all too small discography, Freddie Redd's Shades of Redd is without a doubt his crowning achievement. Completed after a successful stint composing music for the stage play The Connection, Redd wrote music specifically geared for his two formidable front line saxophonists -- emerging alto giant Jackie McLean and the unsung hero of the tenor, Tina Brooks. Redd, bassist Paul Chambers, and drummer Louis Hayes, fresh out of the Detroit scene, took New York City by storm playing clubs and working with Redd when he was not doing production music. All of these tracks, originals by Redd, are brimming with the hope, optimism, and fresh ideas of the early '60s, music perfectly rendered and representative of the time period. The darting, daring, tart sweet alto of McLean and the robust, lean, protein enriched tenor of Brooks fit beautifully together when they play in unison, and they do that a lot. The calm, lovely, then bursting into bop piece "The Thespian" sets the tone, followed by the swinging, head nodding "Blues-Blues-Blues," and the happy, hip, swing/shuffle "Melanie" brings the cream to the top. The teamwork displayed here rivals any seasoned veteran band of the era. Redd's piano playing, never spectacular or boisterous, is instead literate and street smart, and comes to the forefront in any tempo, whether the fleet hard bopper to Latin tinged near-show tune "Swift" and the spicy calypso to swing strutter "Ole," where Brooks steps up and takes a marvelous John Coltrane cum Hank Mobley solo. McLean's feature on "Just a Ballad for My Baby" illustrates his unique style, slightly but purposefully using microtones that might seem somewhat off-putting to the non-cognoscenti, but is remarkable upon closer inspection. Considering this is 1960, and Ornette Coleman was also making his way beyond conventional means, McLean is innovating just as much. Stretched out alternate takes of "Melanie" and "Ole" are included on this single CD, and are also available on Redd's 1988 Mosaic label reissue of his complete Blue Note efforts. Redd is still alive as of this writing, performing occasionally in his Los Angeles area home and in New York in 2007 for a revisited production of The Connection. Shades of Redd, his zenith as a jazz musician, would be a wonderful addition to any collection, and shows that the lesser known musicians have plenty of music to play, in addition to a unique perspective aside from the giants of this music.

Код:

Exact Audio Copy V0.99 prebeta 4 from 23. January 2008

EAC extraction logfile from 3. August 2008, 21:02

Freddie Redd / Shades of Redd

Used drive  : ATAPI   DVD A  DH20A3H   Adapter: 1  ID: 1

Read mode               : Secure
Utilize accurate stream : Yes
Defeat audio cache      : Yes
Make use of C2 pointers : No

Read offset correction                      : 6
Overread into Lead-In and Lead-Out          : No
Fill up missing offset samples with silence : Yes
Delete leading and trailing silent blocks   : No
Null samples used in CRC calculations       : Yes
Used interface                              : Installed external ASPI interface

Used output format              : User Defined Encoder
Selected bitrate                : 768 kBit/s
Quality                         : High
Add ID3 tag                     : No
Command line compressor         : C:\Program Files\Exact Audio Copy\flac.exe
Additional command line options : -V -8 -T "artist=%a" -T "title=%t" -T "album=%g" -T "date=%y" -T "tracknumber=%n" -T "genre=%m" %s

TOC of the extracted CD

     Track |   Start  |  Length  | Start sector | End sector
    ---------------------------------------------------------
        1  |  0:00.00 |  7:01.43 |         0    |    31617
        2  |  7:01.43 |  6:01.32 |     31618    |    58724
        3  | 13:03.00 |  7:23.55 |     58725    |    92004
        4  | 20:26.55 |  5:06.66 |     92005    |   115020
        5  | 25:33.46 |  4:02.03 |    115021    |   133173
        6  | 29:35.49 |  4:14.71 |    133174    |   152294
        7  | 33:50.45 |  6:26.20 |    152295    |   181264
        8  | 40:16.65 |  5:28.57 |    181265    |   205921
        9  | 45:45.47 |  7:38.14 |    205922    |   240285

Range status and errors

Selected range

     Filename D:\WinRar\Freddie Redd - Shades of Redd (1960 RVG)[FLAC Full Scans]\Freddie Redd - Shades of Redd.wav

     Peak level 97.9 %
     Range quality 100.0 %
     Test CRC 9A1E6767
     Copy CRC 9A1E6767
     Copy OK

No errors occurred

AccurateRip summary

Track  1  accurately ripped (confidence 2)  [41E6FE63]
Track  2  accurately ripped (confidence 2)  [F420151B]
Track  3  accurately ripped (confidence 2)  [EC2FD4CA]
Track  4  accurately ripped (confidence 2)  [6947A3EE]
Track  5  accurately ripped (confidence 2)  [5A53A069]
Track  6  accurately ripped (confidence 2)  [9290E978]
Track  7  accurately ripped (confidence 2)  [8226DF81]
Track  8  accurately ripped (confidence 2)  [527EC330]
Track  9  accurately ripped (confidence 2)  [C80FF7E7]

All tracks accurately ripped

End of status report
Обложки прилагаются. Благодарности за релиз - Mazeppa (hqshare).

Трекер:  [ 28-Янв-2012 10:38 ]

  

Скачать .torrent

Размер .torrent файла 15 KB


Размер: 370 MB
Хэш (hash) релиза: 19318685fe6b902172ee6f6eb5bfe18cd901a59e

Еще никто не оставлял запись к записи скачать торрент Freddie Redd Quintet - Shades of Redd . Будь первым!

!Обратная связь