Скачать через торрент музыку Freddie Hubbard - Open Sesame - 1960 бесплатно без регистрации torrent

Если у вас наблюдаются проблемы со скриншотами, переходом по ссылками, скачиванием торрентов - проблемы в блокировщике рекламы AdBlock. #хорошегоДня!


Статистика раздачи
Размер:  394 MB   |    Зарегистрирован:  5 лет 8 месяцев   |    .torrent скачан:  25 раз   |   
Раздают:  1  
   
Загрузка...
 
Автор Сообщение

Umakiro

avatar Umakiro


Freddie Hubbard - Open Sesame

Жанр: Hard Bop, Trumpet Jazz
Год записи альбома: 1960
Год выпуска диска: 2002
Производитель диска: EU {Blue Note 724349534124} RVG Edition
Аудио кодек: FLAC
Тип рипа: tracks+.cue
Битрейт аудио: lossless
Продолжительность: 53:30

Трэклист:
01. Open Sesame
02. But Beautiful
03. Gypsy Blue
04. All Or Nothing At All
05. One Mint Julep
06. Hub's Nub
07. Open Sesame (Alternate Take)
08. Gypsy Blue (Alternate Take)

Доп. информация:
сканы JPEG прилагаются
За релиз огромное спасибо Sarchiapone!
 
Exact Audio Copy V0.99 prebeta 5 from 4. May 2009

EAC extraction logfile from 15. February 2010, 23:32

Freddie Hubbard / Open Sesame

Used drive : PLEXTOR CD-R PREMIUM2 Adapter: 1 ID: 1

Read mode : SecureUtilize accurate stream : YesDefeat audio cache : YesMake use of C2 pointers : No

Read offset correction : 30Overread into Lead-In and Lead-Out : NoFill up missing offset samples with silence : YesDelete leading and trailing silent blocks : NoNull samples used in CRC calculations : YesUsed interface : Installed external ASPI interfaceGap handling : Appended to previous track

Used output format : User Defined EncoderSelected bitrate : 32 kBit/sQuality : HighAdd ID3 tag : NoCommand line compressor : C:\Programmi\FLAC\flac.exeAdditional command line options : -8 -V -T "ARTIST=%a" -T "TITLE=%t" -T "ALBUM=%g" -T "DATE=%y" -T "TRACKNUMBER=%n" -T "GENRE=%m" -T "COMMENT=EAC FLAC -8" %s

TOC of the extracted CD

Track | Start | Length | Start sector | End sector --------------------------------------------------------- 1 | 0:00.00 | 7:11.55 | 0 | 32379 2 | 7:11.55 | 6:26.58 | 32380 | 61387 3 | 13:38.38 | 6:28.02 | 61388 | 90489 4 | 20:06.40 | 5:36.20 | 90490 | 115709 5 | 25:42.60 | 6:04.00 | 115710 | 143009 6 | 31:46.60 | 6:51.66 | 143010 | 173900 7 | 38:38.51 | 7:16.15 | 173901 | 206615 8 | 45:54.66 | 7:35.20 | 206616 | 240760

Track 1

Filename D:\My Rip\01 - Open Sesame.wav

Pre-gap length 0:00:02.00

Peak level 97.9 % Track quality 100.0 % Test CRC 5516F343 Copy CRC 5516F343 Accurately ripped (confidence 3) [40F2BC83] Copy OK

Track 2

Filename D:\My Rip\02 - But Beautiful.wav

Pre-gap length 0:00:02.90

Peak level 97.9 % Track quality 100.0 % Test CRC 63DA15F6 Copy CRC 63DA15F6 Accurately ripped (confidence 3) [30F3405D] Copy OK

Track 3

Filename D:\My Rip\03 - Gypsy Blue.wav

Pre-gap length 0:00:02.85

Peak level 97.9 % Track quality 100.0 % Test CRC B2FEC0CB Copy CRC B2FEC0CB Accurately ripped (confidence 3) [D718188F] Copy OK

Track 4

Filename D:\My Rip\04 - All Or Nothing At All.wav

Pre-gap length 0:00:02.14

Peak level 97.9 % Track quality 100.0 % Test CRC 6347FBD4 Copy CRC 6347FBD4 Accurately ripped (confidence 3) [DEE0D6D7] Copy OK

Track 5

Filename D:\My Rip\05 - One Mint Julep.wav

Pre-gap length 0:00:03.32

Peak level 97.9 % Track quality 100.0 % Test CRC BA53EC2B Copy CRC BA53EC2B Accurately ripped (confidence 3) [67746C26] Copy OK

Track 6

Filename D:\My Rip\06 - Hub's Nub.wav

Pre-gap length 0:00:03.61

Peak level 97.9 % Track quality 100.0 % Test CRC E64CAE3A Copy CRC E64CAE3A Accurately ripped (confidence 3) [A6803E50] Copy OK

Track 7

Filename D:\My Rip\07 - Open Sesame (Alternate Take).wav

Pre-gap length 0:00:00.32

Peak level 97.9 % Track quality 100.0 % Test CRC 5D9CB2D2 Copy CRC 5D9CB2D2 Accurately ripped (confidence 3) [22299788] Copy OK

Track 8

Filename D:\My Rip\08 - Gypsy Blue (Alternate Take).wav

Pre-gap length 0:00:01.93

Peak level 97.9 % Track quality 99.9 % Test CRC 7D23993C Copy CRC 7D23993C Accurately ripped (confidence 3) [3196D229] Copy OK

All tracks accurately ripped

No errors occurred

End of status report
 
REM GENRE JazzREM DATE 1960REM DISCID 5C0C8A08REM COMMENT "ExactAudioCopy v0.99pb5"PERFORMER "Freddie Hubbard"TITLE "Open Sesame"FILE "01 - Open Sesame.flac" WAVE TRACK 01 AUDIO TITLE "Open Sesame" PERFORMER "Freddie Hubbard" INDEX 01 00:00:00 TRACK 02 AUDIO TITLE "But Beautiful" PERFORMER "Freddie Hubbard" INDEX 00 07:08:62FILE "02 - But Beautiful.flac" WAVE INDEX 01 00:00:00 TRACK 03 AUDIO TITLE "Gypsy Blue" PERFORMER "Freddie Hubbard" INDEX 00 06:23:69FILE "03 - Gypsy Blue.flac" WAVE INDEX 01 00:00:00 TRACK 04 AUDIO TITLE "All Or Nothing At All" PERFORMER "Freddie Hubbard" INDEX 00 06:25:66FILE "04 - All Or Nothing At All.flac" WAVE INDEX 01 00:00:00 TRACK 05 AUDIO TITLE "One Mint Julep" PERFORMER "Freddie Hubbard" INDEX 00 05:32:71FILE "05 - One Mint Julep.flac" WAVE INDEX 01 00:00:00 TRACK 06 AUDIO TITLE "Hub's Nub" PERFORMER "Freddie Hubbard" INDEX 00 06:00:29FILE "06 - Hub's Nub.flac" WAVE INDEX 01 00:00:00 TRACK 07 AUDIO TITLE "Open Sesame (Alternate Take)" PERFORMER "Freddie Hubbard" INDEX 00 06:51:42FILE "07 - Open Sesame (Alternate Take).flac" WAVE INDEX 01 00:00:00 TRACK 08 AUDIO TITLE "Gypsy Blue (Alternate Take)" PERFORMER "Freddie Hubbard" INDEX 00 07:14:20FILE "08 - Gypsy Blue (Alternate Take).flac" WAVE INDEX 01 00:00:00


Трекер:  [ 28-Янв-2012 10:37 ]

  

Скачать .torrent

Размер .torrent файла 33 KB


Размер: 394 MB
Хэш (hash) релиза: e62721c6e1b9ff16715979bf94bcf33a375836eb

Еще никто не оставлял запись к записи скачать торрент Freddie Hubbard - Open Sesame - 1960 . Будь первым!

!Обратная связь