Скачать через торрент музыку Freddie Hubbard - Hub-Tones - {RVG Edition} - 1962, FLAC бесплатно без регистрации torrent

Если у вас наблюдаются проблемы со скриншотами, переходом по ссылками, скачиванием торрентов - проблемы в блокировщике рекламы AdBlock. #хорошегоДня!


Статистика раздачи
Размер:  435 MB   |    Зарегистрирован:  5 лет 8 месяцев   |    .torrent скачан:  27 раз   |   
Раздают:  1  
   
Загрузка...
 
Автор Сообщение

Umakiro

avatar Umakiro


Freddie Hubbard - Hub-Tones - {RVG Edition}

Страна: USA / Blue Note Records
Жанр: Jazz/Hard-bop
Год выпуска: 1962
Формат: FLAC (tracks + .cue)
Битрейт аудио: lossless
Продолжительность: 61:17
Лейбл: Blue Note Records (RVG Edition)
Источник: собственный рип, full scans incl. 300dpi

Трэклист:
1. You're My Everything
2. Prophet Jennings
3. Hub Tones
4. Lament For Booker
5. For Spee's Sake
6. You're My Everything (alternate take)
7. Hub Tones (alternate take)
8. For Spee's Sake (alternate take)

Доп. информация:
Personnel:
Freddie Hubbard (trumpet);
James Spaulding (alto saxophone, flute);
Herbie Hancock (piano);
Reggie Workman (bass);
Clifford Jarvis (drums).

Producer: Alfred Lion.
Reissue producer: Michael Cuscuna.

Recorded at the Van Gelder Studio, Englewood Cliffs, New Jersey on October 10, 1962. Originally released on Blue Note (84115).
Includes liner notes by Joe Goldberg and Bob Blumenthal.

Digitally remastered using 24-bit technology by Rudy Van Gelder (1998, Van Gelder Studio, Englewood Cliffs, New Jersey).
This is part of the Blue Note Rudy Van Gelder Editions series.
 
Exact Audio Copy V0.99 prebeta 5 from 4. May 2009

EAC extraction logfile from 25. August 2009, 8:12

Freddie Hubbard / Hub-Tones

Used drive : HL-DT-STDVDRAM GH22NS40 Adapter: 2 ID: 0

Read mode : SecureUtilize accurate stream : YesDefeat audio cache : YesMake use of C2 pointers : No

Read offset correction : 667Overread into Lead-In and Lead-Out : NoFill up missing offset samples with silence : YesDelete leading and trailing silent blocks : NoNull samples used in CRC calculations : YesUsed interface : Native Win32 interface for Win NT & 2000Gap handling : Appended to previous track

Used output format : User Defined EncoderSelected bitrate : 128 kBit/sQuality : HighAdd ID3 tag : NoCommand line compressor : C:\Program Files (x86)\Exact Audio Copy\Flac\flac.exeAdditional command line options : -8 -V -T "ARTIST=%a" -T "TITLE=%t" -T "ALBUM=%g" -T "DATE=%y" -T "TRACKNUMBER=%n" -T "GENRE=%m" -T "COMMENT=EAC FLAC -8" %s

TOC of the extracted CD

Track | Start | Length | Start sector | End sector --------------------------------------------------------- 1 | 0:00.00 | 6:37.10 | 0 | 29784 2 | 6:37.10 | 5:31.19 | 29785 | 54628 3 | 12:08.29 | 8:24.32 | 54629 | 92460 4 | 20:32.61 | 9:41.32 | 92461 | 136067 5 | 30:14.18 | 8:38.24 | 136068 | 174941 6 | 38:52.42 | 6:30.45 | 174942 | 204236 7 | 45:23.12 | 8:00.46 | 204237 | 240282 8 | 53:23.58 | 7:54.05 | 240283 | 275837

Track 1

Filename H:\Jazz Music\ONLY JAZZ\Freddie Hubbard\Freddie Hubbard - Hub-Tones - 1962 {RVG Edition}\01. You're My Everything.wav

Pre-gap length 0:00:02.00

Peak level 97.9 % Track quality 99.9 % Test CRC 7F4AC75E Copy CRC 7F4AC75E Accurately ripped (confidence 13) [6234207F] Copy OK

Track 2

Filename H:\Jazz Music\ONLY JAZZ\Freddie Hubbard\Freddie Hubbard - Hub-Tones - 1962 {RVG Edition}\02. Prophet Jennings.wav

Pre-gap length 0:00:03.86

Peak level 97.9 % Track quality 100.0 % Test CRC CC01F705 Copy CRC CC01F705 Accurately ripped (confidence 13) [640380D7] Copy OK

Track 3

Filename H:\Jazz Music\ONLY JAZZ\Freddie Hubbard\Freddie Hubbard - Hub-Tones - 1962 {RVG Edition}\03. Hub-Tones.wav

Pre-gap length 0:00:03.80

Peak level 97.9 % Track quality 100.0 % Test CRC 64F1836C Copy CRC 64F1836C Accurately ripped (confidence 13) [1C6ACD2C] Copy OK

Track 4

Filename H:\Jazz Music\ONLY JAZZ\Freddie Hubbard\Freddie Hubbard - Hub-Tones - 1962 {RVG Edition}\04. Lament For Booker.wav

Pre-gap length 0:00:04.84

Peak level 97.9 % Track quality 99.9 % Test CRC E76355D3 Copy CRC E76355D3 Accurately ripped (confidence 13) [C48D9462] Copy OK

Track 5

Filename H:\Jazz Music\ONLY JAZZ\Freddie Hubbard\Freddie Hubbard - Hub-Tones - 1962 {RVG Edition}\05. For Spee's Sake.wav

Pre-gap length 0:00:04.32

Peak level 97.9 % Track quality 99.9 % Test CRC 90F5B9CD Copy CRC 90F5B9CD Accurately ripped (confidence 13) [21FB9E62] Copy OK

Track 6

Filename H:\Jazz Music\ONLY JAZZ\Freddie Hubbard\Freddie Hubbard - Hub-Tones - 1962 {RVG Edition}\06. You're My Everything (Alternate Take).wav

Pre-gap length 0:00:04.56

Peak level 97.9 % Track quality 100.0 % Test CRC 38C1738E Copy CRC 38C1738E Accurately ripped (confidence 13) [CA9C0A5B] Copy OK

Track 7

Filename H:\Jazz Music\ONLY JAZZ\Freddie Hubbard\Freddie Hubbard - Hub-Tones - 1962 {RVG Edition}\07. Hub-Tones (Alternate Take).wav

Pre-gap length 0:00:04.97

Peak level 97.9 % Track quality 100.0 % Test CRC B7CA9396 Copy CRC B7CA9396 Accurately ripped (confidence 13) [EEBEAC3E] Copy OK

Track 8

Filename H:\Jazz Music\ONLY JAZZ\Freddie Hubbard\Freddie Hubbard - Hub-Tones - 1962 {RVG Edition}\08. For Spee's Sake (Alternate Take).wav

Pre-gap length 0:00:04.46

Peak level 97.9 % Track quality 100.0 % Test CRC 594BE3B5 Copy CRC 594BE3B5 Accurately ripped (confidence 13) [8060797E] Copy OK

All tracks accurately ripped

No errors occurred

End of status report
 
REM GENRE JazzREM DATE 1962REM DISCID 610E5D08REM COMMENT "ExactAudioCopy v0.99pb5"PERFORMER "Freddie Hubbard"TITLE "Hub-Tones"FILE "01. You're My Everything.wav" WAVE TRACK 01 AUDIO TITLE "You're My Everything" PERFORMER "Freddie Hubbard" FLAGS DCP INDEX 01 00:00:00 TRACK 02 AUDIO TITLE "Prophet Jennings" PERFORMER "Freddie Hubbard" FLAGS DCP INDEX 00 06:33:20FILE "02. Prophet Jennings.wav" WAVE INDEX 01 00:00:00 TRACK 03 AUDIO TITLE "Hub-Tones" PERFORMER "Freddie Hubbard" FLAGS DCP INDEX 00 05:27:34FILE "03. Hub-Tones.wav" WAVE INDEX 01 00:00:00 TRACK 04 AUDIO TITLE "Lament For Booker" PERFORMER "Freddie Hubbard" FLAGS DCP INDEX 00 08:19:44FILE "04. Lament For Booker.wav" WAVE INDEX 01 00:00:00 TRACK 05 AUDIO TITLE "For Spee's Sake" PERFORMER "Freddie Hubbard" FLAGS DCP INDEX 00 09:37:08FILE "05. For Spee's Sake.wav" WAVE INDEX 01 00:00:00 TRACK 06 AUDIO TITLE "You're My Everything (Alternate Take)" PERFORMER "Freddie Hubbard" FLAGS DCP INDEX 00 08:33:57FILE "06. You're My Everything (Alternate Take).wav" WAVE INDEX 01 00:00:00 TRACK 07 AUDIO TITLE "Hub-Tones (Alternate Take)" PERFORMER "Freddie Hubbard" FLAGS DCP INDEX 00 06:25:47FILE "07. Hub-Tones (Alternate Take).wav" WAVE INDEX 01 00:00:00 TRACK 08 AUDIO TITLE "For Spee's Sake (Alternate Take)" PERFORMER "Freddie Hubbard" FLAGS DCP INDEX 00 07:56:11FILE "08. For Spee's Sake (Alternate Take).wav" WAVE INDEX 01 00:00:00


Трекер:  [ 28-Янв-2012 10:37 ]

  

Скачать .torrent

Размер .torrent файла 18 KB


Размер: 435 MB
Хэш (hash) релиза: 72425e06a15f549e120d157b2f9d7b1dabd916ef

Еще никто не оставлял запись к записи скачать торрент Freddie Hubbard - Hub-Tones - {RVG Edition} - 1962, FLAC . Будь первым!

!Обратная связь