Скачать через торрент музыку Freddie Hubbard - Breaking Point - 1964, APE бесплатно без регистрации torrent

Если у вас наблюдаются проблемы со скриншотами, переходом по ссылками, скачиванием торрентов - проблемы в блокировщике рекламы AdBlock. #хорошегоДня!


Статистика раздачи
Размер:  312 MB   |    Зарегистрирован:  5 лет 8 месяцев   |    .torrent скачан:  36 раз   |   
Раздают:  1  
   
Загрузка...
 
Автор Сообщение

Umakiro

avatar Umakiro


Freddie Hubbard - Breaking Point {RVG Edition}

Жанр: Post-Bop
Год выпуска диска: 1964
Производитель диска: UK
Аудио кодек: APE
Тип рипа: image+.cue
Битрейт аудио: lossless
Продолжительность: 46:41
Лейбл: Blue Note

Трэклист:
1 Breaking Point
2 Far Away
3 Blue Frenzy
4 D Minor Mint
5 Mirrors
6 Blue Frenzy [alternate take]
7 Mirrors [alternate take]

Музыканты:
Freddie Hubbard - trumpet
James Spaulding - alto sax, flute
Ronnie Mathews - piano
Eddie Khan - bass
Joe Chambers - drums

Originally recorded on May 7, 1964 at the Van Gelder Studio, Englewood Cliffs, New Jersey
Remastered in 2003 by Rudy Van Gelder
 
Exact Audio Copy V0.99 prebeta 4 from 23. January 2008

Отчёт EAC об извлечении, выполненном 24. августа 2009, 15:38

Freddie Hubbard / Breaking Point

Дисковод: Optiarc DVD RW AD-7200A Adapter: 3 ID: 1

Режим чтения : ДостоверностьИспользование точного потока : ДаОтключение кэша аудио : ДаИспользование указателей C2 : Нет

Коррекция смещения при чтении : 48Способность читать области Lead-in и Lead-out : НетЗаполнение пропущенных сэмплов тишиной : ДаУдаление блоков с тишиной в начале и конце : НетПри вычислениях CRC использовались нулевые сэмплы : ДаИнтерфейс : Установленный внешний ASPI-интерфейс

Выходной формат : Внутренние WAV-операцииФормат сэмплов : 44.100 Гц; 16 бит; стерео

TOC извлечённого CD

Трек | Старт | Длительность | Начальный сектор | Конечный сектор --------------------------------------------------------------------- 1 | 0:00.00 | 10:17.33 | 0 | 46307 2 | 10:17.33 | 10:56.39 | 46308 | 95546 3 | 21:13.72 | 6:21.43 | 95547 | 124164 4 | 27:35.40 | 6:22.70 | 124165 | 152884 5 | 33:58.35 | 6:06.08 | 152885 | 180342 6 | 40:04.43 | 3:16.04 | 180343 | 195046 7 | 43:20.47 | 3:21.17 | 195047 | 210138

Характеристики диапазона извлечения и сообщения об ошибках

Выбранный диапазон

Имя файла E:\Up-Down\Freddie Hubbard - Breaking Point\Freddie Hubbard - Breaking Point.wav

Пиковый уровень 97.9 % Качество диапазона 100.0 % CRC копии AF90CA2E Копирование... OK

Ошибок не произошло

Конец отчёта
 
AUDIOCHECKER v1.2 - by Dester - opdester@freemail.hu~~~~~~~~~~~~~~~~~

1 -===- E:\Up-Down\Freddie Hubbard - Breaking Point\Freddie Hubbard - Breaking Point.ape Extracted successfully Conclusion: This track looks like CDDA with probability 100%


Трекер:  [ 28-Янв-2012 10:36 ]

  

Скачать .torrent

Размер .torrent файла 13 KB


Размер: 312 MB
Хэш (hash) релиза: 6f3a71d925ef647bcba619f8150d2e8caded139a

Еще никто не оставлял запись к записи скачать торрент Freddie Hubbard - Breaking Point - 1964, APE . Будь первым!

!Обратная связь