Скачать через торрент музыку Freddie Hubbard - The Night Of The Cookers бесплатно без регистрации torrent

Если у вас наблюдаются проблемы со скриншотами, переходом по ссылками, скачиванием торрентов - проблемы в блокировщике рекламы AdBlock. #хорошегоДня!


Статистика раздачи
Размер:  551 MB   |    Зарегистрирован:  5 лет 8 месяцев   |    .torrent скачан:  27 раз   |   
Раздают:  1  
   
Загрузка...
 
Автор Сообщение

Umakiro

avatar Umakiro


Freddie Hubbard - The Night Of The Cookers (1965) [2CD] {2004 Rudy Van Gelder Remaster}

Жанр: Hard Bop
Год выпуска диска: 2004
Производитель диска: U.S.A. © 2004 Blue Note / Capitol / EMI | 7243 5 94323 2 8 | 24-bit remaster
Аудио кодек: FLAC
Тип рипа: tracks+.cue
Битрейт аудио: lossless
Продолжительность: 01:26
Релизер: ruskaval
Трэклист:
CD1
1. Pensativa
2. Walkin'

CD2
1. Jodo
2. Breaking Point
Доп. информация:
Personnel:
Freddie Hubbard (trumpet);
Lee Morgan (trumpet);
Larry Ridley (bass instrument);
Big Black (congas);
James Spaulding (flute, alto saxophone);
Harold Mabern (piano);
Pete La Roca (drums).
REM GENRE Jazz
REM DATE 1965
REM DISCID 1209C902
REM COMMENT "ExactAudioCopy v0.99pb5"
PERFORMER "Freddie Hubbard"
TITLE "The Night Of The Cookers (CD1)"
FILE "01 - Pensativa.wav" WAVE
TRACK 01 AUDIO
TITLE "Pensativa"
PERFORMER "Freddie Hubbard"
INDEX 01 00:00:00
TRACK 02 AUDIO
TITLE "Walkin'"
PERFORMER "Freddie Hubbard"
INDEX 00 22:15:54
FILE "02 - Walkin'.wav" WAVE
INDEX 01 00:00:00
REM GENRE Jazz
REM DATE 1965
REM DISCID 0E0A9D02
REM COMMENT "ExactAudioCopy v0.99pb5"
PERFORMER "Freddie Hubbard"
TITLE "The Night Of The Cookers (CD2)"
FILE "01 - Jodo.wav" WAVE
TRACK 01 AUDIO
TITLE "Jodo"
PERFORMER "Freddie Hubbard"
INDEX 01 00:00:00
TRACK 02 AUDIO
TITLE "Breaking Point"
PERFORMER "Freddie Hubbard"
INDEX 00 23:31:43
FILE "02 - Breaking Point.wav" WAVE
INDEX 01 00:00:00
Exact Audio Copy V0.99 prebeta 5 from 4. May 2009

EAC extraction logfile from 2. July 2010, 16:38

Freddie Hubbard / The Night Of The Cookers (CD1)

Used drive : TSSTcorpCD/DVDW TS-H552L Adapter: 3 ID: 0

Read mode : Secure
Utilize accurate stream : Yes
Defeat audio cache : Yes
Make use of C2 pointers : No

Read offset correction : 6
Overread into Lead-In and Lead-Out : No
Fill up missing offset samples with silence : Yes
Delete leading and trailing silent blocks : No
Null samples used in CRC calculations : Yes
Used interface : Native Win32 interface for Win NT & 2000
Gap handling : Appended to previous track

Used output format : User Defined Encoder
Selected bitrate : 1024 kBit/s
Quality : High
Add ID3 tag : No
Command line compressor : C:\Program Files\FLAC\flac.exe
Additional command line options : -6 -V -T "ARTIST=%a" -T "TITLE=%t" -T "ALBUM=%g" -T "DATE=%y" -T "TRACKNUMBER=%n" -T "GENRE=%m" -T "COMMENT=EAC FLAC -6" %s

TOC of the extracted CD

Track | Start | Length | Start sector | End sector
---------------------------------------------------------
1 | 0:00.00 | 22:17.65 | 0 | 100339
2 | 22:17.65 | 19:27.12 | 100340 | 187876

Track 1

Filename C:\Freddie Hubbard - The Night Of The Cookers (1965) [2CD] {2004 Rudy Van Gelder Remaster}\CD1\01 - Pensativa.wav

Pre-gap length 0:00:02.00

Peak level 97.9 %
Track quality 99.9 %
Test CRC 9659495C
Copy CRC 9659495C
Accurately ripped (confidence 4) [0F65E388]
Copy OK

Track 2

Filename C:\Freddie Hubbard - The Night Of The Cookers (1965) [2CD] {2004 Rudy Van Gelder Remaster}\CD1\02 - Walkin'.wav

Pre-gap length 0:00:02.11

Peak level 92.3 %
Track quality 100.0 %
Test CRC E48F6736
Copy CRC E48F6736
Accurately ripped (confidence 4) [0E4AE3B2]
Copy OK

All tracks accurately ripped

No errors occurred

End of status report
Exact Audio Copy V0.99 prebeta 5 from 4. May 2009

EAC extraction logfile from 2. July 2010, 16:52

Freddie Hubbard / The Night Of The Cookers (CD2)

Used drive : TSSTcorpCD/DVDW TS-H552L Adapter: 3 ID: 0

Read mode : Secure
Utilize accurate stream : Yes
Defeat audio cache : Yes
Make use of C2 pointers : No

Read offset correction : 6
Overread into Lead-In and Lead-Out : No
Fill up missing offset samples with silence : Yes
Delete leading and trailing silent blocks : No
Null samples used in CRC calculations : Yes
Used interface : Native Win32 interface for Win NT & 2000
Gap handling : Appended to previous track

Used output format : User Defined Encoder
Selected bitrate : 1024 kBit/s
Quality : High
Add ID3 tag : No
Command line compressor : C:\Program Files\FLAC\flac.exe
Additional command line options : -6 -V -T "ARTIST=%a" -T "TITLE=%t" -T "ALBUM=%g" -T "DATE=%y" -T "TRACKNUMBER=%n" -T "GENRE=%m" -T "COMMENT=EAC FLAC -6" %s

TOC of the extracted CD

Track | Start | Length | Start sector | End sector
---------------------------------------------------------
1 | 0:00.00 | 23:34.37 | 0 | 106086
2 | 23:34.37 | 21:43.11 | 106087 | 203822

Track 1

Filename C:\Freddie Hubbard - The Night Of The Cookers (1965) [2CD] {2004 Rudy Van Gelder Remaster}\CD2\01 - Jodo.wav

Pre-gap length 0:00:02.00

Peak level 97.0 %
Track quality 100.0 %
Test CRC DE824F9A
Copy CRC DE824F9A
Accurately ripped (confidence 4) [8E7A22EE]
Copy OK

Track 2

Filename C:\Freddie Hubbard - The Night Of The Cookers (1965) [2CD] {2004 Rudy Van Gelder Remaster}\CD2\02 - Breaking Point.wav

Pre-gap length 0:00:02.69

Peak level 94.8 %
Track quality 99.9 %
Test CRC 32732ACA
Copy CRC 32732ACA
Accurately ripped (confidence 4) [E5516244]
Copy OK

All tracks accurately ripped

No errors occurred

End of status report


Трекер:  [ 28-Янв-2012 10:36 ]

  

Скачать .torrent

Размер .torrent файла 13 KB


Размер: 551 MB
Хэш (hash) релиза: a943029345d5e965b77fe6401753630b1162eb77

Еще никто не оставлял запись к записи скачать торрент Freddie Hubbard - The Night Of The Cookers . Будь первым!

!Обратная связь