Скачать через торрент музыку Freddie Hubbard - Blue Spirits {RVG Edition} - 1965, APE бесплатно без регистрации torrent

Если у вас наблюдаются проблемы со скриншотами, переходом по ссылками, скачиванием торрентов - проблемы в блокировщике рекламы AdBlock. #хорошегоДня!


Статистика раздачи
Размер:  383 MB   |    Зарегистрирован:  5 лет 8 месяцев   |    .torrent скачан:  39 раз   |   
Раздают:  1  
   
Загрузка...
 
Автор Сообщение

Umakiro

avatar Umakiro


Freddie Hubbard - Blue Spirits {RVG Edition}

Жанр: Post-Bop/Hard Bop
Год выпуска диска: 1965
Производитель диска: UK
Аудио кодек: APE
Тип рипа: image+.cue
Битрейт аудио: lossless
Продолжительность: 62:07
Лейбл: Blue Note
Источник: собственный рип, full scan 300dpi

Трэклист:
1 Soul Surge
2 Blue Spirits
3 Outer Forces
4 Cunga Black
5 Jodo
6 The Melting Pot
7 True Colors

Музыканты:
Freddie Hubbard - trumpet
James Spaulding, - alto sax, flute(1-5)
Hosea Taylor - alto sax, basson(6,7)
Joe Henderson(1.4), Hank Mobley(2,3,5-7) - tenor sax
Kiane Zawadi - euphonium(1-5)
Harold Mabern(2,3,5), McCoy Tyner(1.4), Herbie Hancock(6,7) - piano
Larry Ridley(2,3,5), Bob Cranshaw(1.4), Reggie Workman(6,7) - bass
Clifford Jarvis(2,3,5), Pete LaRoca(1.4), Elvin Jones(6,7) - drums
Big Black - conga(2,3,5)

Originally recorded on February 19, 26, 1965 & March 5, 1966 at the Van Gelder Studio, Englewood Cliffs, New Jersey
Remastered in 2003 by Rudy Van Gelder
 
Exact Audio Copy V0.99 prebeta 4 from 23. January 2008

Отчёт EAC об извлечении, выполненном 25. августа 2009, 19:40

Freddie Hubbard / Blue Spirits

Дисковод: Optiarc DVD RW AD-7200A Adapter: 3 ID: 1

Режим чтения : ДостоверностьИспользование точного потока : ДаОтключение кэша аудио : ДаИспользование указателей C2 : Нет

Коррекция смещения при чтении : 48Способность читать области Lead-in и Lead-out : НетЗаполнение пропущенных сэмплов тишиной : ДаУдаление блоков с тишиной в начале и конце : НетПри вычислениях CRC использовались нулевые сэмплы : ДаИнтерфейс : Установленный внешний ASPI-интерфейс

Выходной формат : Внутренние WAV-операцииФормат сэмплов : 44.100 Гц; 16 бит; стерео

TOC извлечённого CD

Трек | Старт | Длительность | Начальный сектор | Конечный сектор --------------------------------------------------------------------- 1 | 0:00.00 | 10:24.72 | 0 | 46871 2 | 10:24.72 | 12:14.29 | 46872 | 101950 3 | 22:39.26 | 9:35.17 | 101951 | 145092 4 | 32:14.43 | 5:15.04 | 145093 | 168721 5 | 37:29.47 | 7:07.28 | 168722 | 200774 6 | 44:37.00 | 7:36.07 | 200775 | 234981 7 | 52:13.07 | 9:53.69 | 234982 | 279525 8 | 64:39.01 | 9:18.74 | 290926 | 332849

Характеристики диапазона извлечения и сообщения об ошибках

Выбранный диапазон

Имя файла E:\Up-Down\Freddie Hubbard - Blue Spirits\Freddie Hubbard - Blue Spirits.wav

Пиковый уровень 97.9 % Качество диапазона 99.9 % CRC копии C140A97B Копирование... OK

Ошибок не произошло

AccurateRip: сводка

Трек 1 точное извлечение (доверие 2) [9D8B9EF3]Трек 2 точное извлечение (доверие 2) [9EF32356]Трек 3 точное извлечение (доверие 2) [7990E243]Трек 4 точное извлечение (доверие 2) [45E5A671]Трек 5 точное извлечение (доверие 2) [F7358FE0]Трек 6 точное извлечение (доверие 2) [DB43AF64]Трек 7 точное извлечение (доверие 2) [74B5038D]

Все треки извлечены точно

Конец отчёта
 
AUDIOCHECKER v1.2 - by Dester - opdester@freemail.hu~~~~~~~~~~~~~~~~~

1 -===- E:\Up-Down\Freddie Hubbard - Blue Spirits\Freddie Hubbard - Blue Spirits.ape Extracted successfully Conclusion: This track looks like CDDA with probability 100%


Трекер:  [ 28-Янв-2012 10:35 ]

  

Скачать .torrent

Размер .torrent файла 16 KB


Размер: 383 MB
Хэш (hash) релиза: 2871ccb95558380b396dd544e0ef030721aecbeb

Еще никто не оставлял запись к записи скачать торрент Freddie Hubbard - Blue Spirits {RVG Edition} - 1965, APE . Будь первым!

!Обратная связь