Скачать через торрент музыку Freddie Hubbard - Here To Stay - 1962, APE бесплатно без регистрации torrent

Если у вас наблюдаются проблемы со скриншотами, переходом по ссылками, скачиванием торрентов - проблемы в блокировщике рекламы AdBlock. #хорошегоДня!


Статистика раздачи
Размер:  237 MB   |    Зарегистрирован:  5 лет 8 месяцев   |    .torrent скачан:  30 раз   |   
Раздают:  1  
   
Загрузка...
 
Автор Сообщение

Umakiro

avatar Umakiro


Freddie Hubbard - Here To Stay {RVG Edition}

Жанр: Hard Bop
Год выпуска диска: 1962
Производитель диска: USA
Аудио кодек: APE
Тип рипа: image+.cue
Битрейт аудио: lossless
Продолжительность: 38:23
Лейбл: Blue Note
Источник: собственный рип, full scan 300dpi

Трэклист:
1 Philly Mignon
2 Father and Son
3 Body and Soul
4 Nostrand and Fulton
5 Full Moon and Empty Arms
6 Assunta

Музыканты:
Freddie Hubbard - trumpet
Wayne Shorter - tenor sax
Cedar Walton - piano
Reggie Workman - bass
Philly Joe Jones - drums

Originally recorded on December 27, 1962 at the Van Gelder Studio, Englewood Cliffs, New Jersey
Remastered in 2006 by Rudy Van Gelder
 
Exact Audio Copy V0.99 prebeta 4 from 23. January 2008

Отчёт EAC об извлечении, выполненном 17. августа 2009, 9:34

Freddie Hubbard / Here To Stay

Дисковод: Optiarc DVD RW AD-7200A Adapter: 3 ID: 1

Режим чтения : ДостоверностьИспользование точного потока : ДаОтключение кэша аудио : ДаИспользование указателей C2 : Нет

Коррекция смещения при чтении : 48Способность читать области Lead-in и Lead-out : НетЗаполнение пропущенных сэмплов тишиной : ДаУдаление блоков с тишиной в начале и конце : НетПри вычислениях CRC использовались нулевые сэмплы : ДаИнтерфейс : Установленный внешний ASPI-интерфейс

Выходной формат : Внутренние WAV-операцииФормат сэмплов : 44.100 Гц; 16 бит; стерео

TOC извлечённого CD

Трек | Старт | Длительность | Начальный сектор | Конечный сектор --------------------------------------------------------------------- 1 | 0:00.00 | 5:30.45 | 0 | 24794 2 | 5:30.45 | 6:37.23 | 24795 | 54592 3 | 12:07.68 | 6:29.51 | 54593 | 83818 4 | 18:37.44 | 7:09.65 | 83819 | 116058 5 | 25:47.34 | 5:28.33 | 116059 | 140691 6 | 31:15.67 | 7:07.35 | 140692 | 172751

Характеристики диапазона извлечения и сообщения об ошибках

Выбранный диапазон

Имя файла E:\Up-Down\Freddie Hubbard - Here To Stay\Freddie Hubbard - Here To Stay.wav

Пиковый уровень 97.9 % Качество диапазона 100.0 % CRC копии 40CBFF10 Копирование... OK

Ошибок не произошло

AccurateRip: сводка

Трек 1 точное извлечение (доверие 8) [B50376C0]Трек 2 точное извлечение (доверие 8) [FF30AE0A]Трек 3 точное извлечение (доверие 8) [E754FEB1]Трек 4 точное извлечение (доверие 8) [866B8C3E]Трек 5 точное извлечение (доверие 8) [50910A65]Трек 6 точное извлечение (доверие 8) [368B9523]

Все треки извлечены точно

Конец отчёта
 
AUDIOCHECKER v1.2 - by Dester - opdester@freemail.hu~~~~~~~~~~~~~~~~~

1 -===- E:\Up-Down\Freddie Hubbard - Here To Stay\Freddie Hubbard - Here To Stay.ape Extracted successfully Conclusion: This track looks like CDDA with probability 100%


Трекер:  [ 28-Янв-2012 10:35 ]

  

Скачать .torrent

Размер .torrent файла 19 KB


Размер: 237 MB
Хэш (hash) релиза: 3f36d98e41435db763613eaa214ad75a91fbb66a

Еще никто не оставлял запись к записи скачать торрент Freddie Hubbard - Here To Stay - 1962, APE . Будь первым!

!Обратная связь