Скачать через торрент музыку Fred Jackson - Hootin `N Tootin {RVG Edition} - 1998, FLAC бесплатно без регистрации torrent

Если у вас наблюдаются проблемы со скриншотами, переходом по ссылками, скачиванием торрентов - проблемы в блокировщике рекламы AdBlock. #хорошегоДня!


Статистика раздачи
Размер:  451 MB   |    Зарегистрирован:  5 лет 8 месяцев   |    .torrent скачан:  26 раз   |   
Раздают:  1  
   
Загрузка...
 
Автор Сообщение

Umakiro

avatar Umakiro


Fred Jackson - Hootin' `N Tootin' {RVG Edition}

Жанр: Soul-Jazz, Fusion
Год выпуска диска: 1998
Производитель диска: USA
Аудио кодек: FLAC
Тип рипа: image+.cue
Битрейт аудио: lossless
Продолжительность: 74:00
Лейбл: Blue Note

Трэклист:
1 Dippin' in the Bag
2 Southern Exposure
3 Preach Brother
4 Hootin' 'N' Tootin'
5 Easin' on Down
6 That's Where It's At
7 Way Down Home
8 Stretchin' Out
9 Mr. B.J.
10 Egypt Land
11 Teena
12 On the Spot
13 Minor Exposure
14 Little Freddie

Музыканты:
Fred Jackson, tenor sax
Earl Vandyke, organ
Willie Jones, guitar
Sam Jones, bass
Wilbert Hogan, drums
Exact Audio Copy V0.99 prebeta 4 from 23. January 2008

Отчёт EAC об извлечении, выполненном 10. февраля 2009, 21:15

Fred Jackson / Hootin' `N Tootin'

Дисковод: TSSTcorpCDDVDW SH-S202J Adapter: 3 ID: 0

Режим чтения : Достоверность
Использование точного потока : Да
Отключение кэша аудио : Да
Использование указателей C2 : Нет

Коррекция смещения при чтении : 6
Способность читать области Lead-in и Lead-out : Нет
Заполнение пропущенных сэмплов тишиной : Да
Удаление блоков с тишиной в начале и конце : Нет
При вычислениях CRC использовались нулевые сэмплы : Да
Интерфейс : Установленный внешний ASPI-интерфейс

Выходной формат : Пользовательский кодировщик
Выбранный битрейт : 768 kBit/s
Качество : Высокий
Добавление ID3-тэга : Нет
Утилита сжатия : C:\Program Files\Exact Audio Copy\FLAC\FLAC.EXE
Дополнительные параметры : -6 -V -T "ARTIST=%a" -T "TITLE=%t" -T "ALBUM=%g" -T "DATE=%y" -T "TRACKNUMBER=%n" -T "GENRE=%m" -T "COMMENT=%e" %s -o %d

TOC извлечённого CD

Трек | Старт | Длительность | Начальный сектор | Конечный сектор
---------------------------------------------------------------------
1 | 0:00.00 | 3:59.52 | 0 | 17976
2 | 3:59.52 | 6:57.09 | 17977 | 49260
3 | 10:56.61 | 5:45.33 | 49261 | 75168
4 | 16:42.19 | 4:34.25 | 75169 | 95743
5 | 21:16.44 | 6:17.34 | 95744 | 124052
6 | 27:34.03 | 5:09.65 | 124053 | 147292
7 | 32:43.68 | 5:15.48 | 147293 | 170965
8 | 37:59.41 | 5:00.28 | 170966 | 193493
9 | 42:59.69 | 6:38.67 | 193494 | 223410
10 | 49:38.61 | 4:24.21 | 223411 | 243231
11 | 54:03.07 | 5:19.17 | 243232 | 267173
12 | 59:22.24 | 4:55.61 | 267174 | 289359
13 | 64:18.10 | 4:58.17 | 289360 | 311726
14 | 69:16.27 | 4:43.59 | 311727 | 333010

Характеристики диапазона извлечения и сообщения об ошибках

Выбранный диапазон

Имя файла D:\My Music\ext\Архивы\Fred Jackson - Hootin' `N Tootin'\Fred Jackson - Hootin' `N Tootin'.wav

Пиковый уровень 82.0 %
Качество диапазона 100.0 %
CRC копии 16182BB7
Копирование... OK

Ошибок не произошло

Конец отчёта
Доп. информация: Originally recorded on February 5 and April 9, 1962 at the Van Gelder Studio, Englewood Cliffs, New Jersey

Трекер:  [ 28-Янв-2012 10:34 ]

  

Скачать .torrent

Размер .torrent файла 18 KB


Размер: 451 MB
Хэш (hash) релиза: 5d6eb33130ffbe2a51d69bf69f5a8f375fd10cbb

Еще никто не оставлял запись к записи скачать торрент Fred Jackson - Hootin `N Tootin {RVG Edition} - 1998, FLAC . Будь первым!

!Обратная связь