Скачать через торрент музыку Duke Pearson - Profile бесплатно без регистрации torrent

Если у вас наблюдаются проблемы со скриншотами, переходом по ссылками, скачиванием торрентов - проблемы в блокировщике рекламы AdBlock. #хорошегоДня!


Статистика раздачи
Размер:  232 MB   |    Зарегистрирован:  5 лет 8 месяцев   |    .torrent скачан:  29 раз   |   
Раздают:  1  
   
Загрузка...
 
Автор Сообщение

Umakiro

avatar Umakiro


Duke Pearson - Profile

Жанр: Hard Bop
Страна-производитель диска: Япония
Год издания диска: 1999 (rec. 1959)
Издатель (лейбл): Blue Note Japan RVG
Номер по каталогу: ST-84022/TOCJ-7065
Аудио кодек: FLAC (*.flac)
Тип рипа: image+.cue
Битрейт аудио: lossless
Продолжительность: 36:39
Источник (релизер): Mazeppa (hqshare)
Наличие сканов в содержимом раздачи: да

Треклист:
01. Like Someone in Love (Burke-Van Heusen)
02. Black Coffee (Webster-Burke)
03. Taboo (M.Lecuona)
04. I'm Glad There Is You (Madeira-Dorsey)
05. Gate City Blues (Duke Pearson)
06. Two Mile Run (Duke Pearson)
07. Witchcraft (Coleman-Leigh)

Состав:
Duke Pearson - piano
Gene Taylor - bass
Lex Humphries - drums

Recorded on October 15, 1959 at the Van Gelder Studio, Hackensack, New Jersey.
Remastered in 1999 by Rudy Van Gelder.
 
Exact Audio Copy V0.99 prebeta 4 from 23. January 2008

EAC extraction logfile from 11. August 2008, 17:23

Duke Pearson / Profile

Used drive : ATAPI DVD A DH20A3H Adapter: 1 ID: 1

Read mode : SecureUtilize accurate stream : YesDefeat audio cache : YesMake use of C2 pointers : No

Read offset correction : 6Overread into Lead-In and Lead-Out : NoFill up missing offset samples with silence : YesDelete leading and trailing silent blocks : NoNull samples used in CRC calculations : YesUsed interface : Installed external ASPI interface

Used output format : User Defined EncoderSelected bitrate : 768 kBit/sQuality : HighAdd ID3 tag : NoCommand line compressor : C:\Program Files\Exact Audio Copy\flac.exeAdditional command line options : -V -8 -T "artist=%a" -T "title=%t" -T "album=%g" -T "date=%y" -T "tracknumber=%n" -T "genre=%m" %s

TOC of the extracted CD

Track | Start | Length | Start sector | End sector --------------------------------------------------------- 1 | 0:00.00 | 5:30.55 | 0 | 24804 2 | 5:30.55 | 4:31.71 | 24805 | 45200 3 | 10:02.51 | 4:57.53 | 45201 | 67528 4 | 15:00.29 | 4:52.25 | 67529 | 89453 5 | 19:52.54 | 5:09.64 | 89454 | 112692 6 | 25:02.43 | 5:54.46 | 112693 | 139288 7 | 30:57.14 | 5:42.11 | 139289 | 164949

Range status and errors

Selected range

Filename D:\WinRar\Duke Pearson - Profile (1959 JRVG)[FLAC Full Scans]\Duke Pearson - Profile.wav

Peak level 99.8 % Range quality 100.0 % Test CRC 8BD0BF22 Copy CRC 8BD0BF22 Copy OK

No errors occurred

AccurateRip summary

Track 1 not present in databaseTrack 2 not present in databaseTrack 3 not present in databaseTrack 4 not present in databaseTrack 5 not present in databaseTrack 6 not present in databaseTrack 7 not present in database

None of the tracks are present in the AccurateRip database

End of status report
By the time Columbus Calvin Pearson Jr. arrived in New York in early 1959, he had studied piano, mellophone, baritone, trumpet, and bass. Although best known for his innovative arrangements for Blue Note, he was a pianist at heart, and Profile, recorded within the demanding context of the trio, was his first album as a leader. This is fine, mellow music that makes you feel good. "Someone" is a bit up-tempo. "Coffee" is a slower composition that captures the need to shake off early-morning cobwebs. "Taboo" is mystical, with the introduction and bridge in different, yet completely complementary tempos. "I'm Glad" is soft. Mr. Pearson composed "Gate City" and "Two Mile": the former is understated elegance; the latter is set in a minor key, with a nice exchange between piano and drums after a bass solo. "Witchcraft" is a pop hit he helped introduce to the genre. The inner harmony and serenity of Duke Pearson is strongly reflected in Profile. He was an artist with a "sense of time and the ability to communicate inner feelings, whether the tempo is fast or slower." This makes his effort special, a worthy addition to any collection. His mother introduced him to the piano, and he dedicated Profile to her. What's not to like?


Трекер:  [ 28-Янв-2012 10:33 ]

  

Скачать .torrent

Размер .torrent файла 19 KB


Размер: 232 MB
Хэш (hash) релиза: bb4c67d522a49025d7503cfea5847a7859ffff1c

Еще никто не оставлял запись к записи скачать торрент Duke Pearson - Profile . Будь первым!

!Обратная связь