Скачать через торрент музыку Duke Pearson - Tender Feelins {RVG Edition} - 1959, FLAC бесплатно без регистрации torrent

Если у вас наблюдаются проблемы со скриншотами, переходом по ссылками, скачиванием торрентов - проблемы в блокировщике рекламы AdBlock. #хорошегоДня!


Статистика раздачи
Размер:  227 MB   |    Зарегистрирован:  5 лет 8 месяцев   |    .torrent скачан:  27 раз   |   
Раздают:  1  
   
Загрузка...
 
Автор Сообщение

Umakiro

avatar Umakiro


Duke Pearson - Tender Feelin's {RVG Edition}

Жанр: Hard Bop
Год выпуска диска: 1959
Производитель диска: Japan
Аудио кодек: FLAC
Тип рипа: tracks+.cue
Битрейт аудио: lossless
Продолжительность: 40:38
Лейбл: Blue Note
Источник: eD2K

Трэклист:
1. Bluebird of Happiness
2. I'm a Fool to Want You
3. I Love You
4. When Sunny Gets Blue
5. Golden Striker
6. On Green Dolphin Street
7. 3 A.M.

Музыканты:
Duke Pearson, piano
Gene Taylor, bass
Lex Humphries, drums

Originally recorded on December 16 & 19, 1959 at the Van Gelder Studio, Englewood Cliffs, New Jersey
Remastered in 1999 by Rudy Van Gelder
 
Exact Audio Copy V0.99 prebeta 4 from 23. January 2008

EAC extraction logfile from 19. February 2009, 8:44

Duke Pearson / Tender Feelin's

Used drive : TSSTcorpCDDVDW SH-S223Q Adapter: 2 ID: 1

Read mode : SecureUtilize accurate stream : YesDefeat audio cache : YesMake use of C2 pointers : No

Read offset correction : 6Overread into Lead-In and Lead-Out : NoFill up missing offset samples with silence : YesDelete leading and trailing silent blocks : NoNull samples used in CRC calculations : YesUsed interface : Installed external ASPI interfaceGap handling : Appended to previous track

Used output format : User Defined EncoderSelected bitrate : 320 kBit/sQuality : HighAdd ID3 tag : NoCommand line compressor : C:\Program Files (x86)\Exact Audio Copy\flac.exeAdditional command line options : -8 -V -T "ARTIST=%a" -T "TITLE=%t" -T "ALBUM=%g" -T "DATE=%y" -T "TRACKNUMBER=%n" -T "GENRE=%m" -T "COMMENT=EAC FLAC -8" %s

TOC of the extracted CD

Track | Start | Length | Start sector | End sector --------------------------------------------------------- 1 | 0:00.00 | 4:20.63 | 0 | 19562 2 | 4:20.63 | 5:24.00 | 19563 | 43862 3 | 9:44.63 | 4:34.00 | 43863 | 64412 4 | 14:18.63 | 5:09.00 | 64413 | 87587 5 | 19:27.63 | 5:28.00 | 87588 | 112187 6 | 24:55.63 | 6:47.00 | 112188 | 142712 7 | 31:42.63 | 8:55.43 | 142713 | 182880

Track 1

Filename C:\Audio\Duke Pearson - Tender Feelin's (1959) [FLAC] {1998 Japan Blue Note RVG}\01 - Bluebird Of Happiness.wav

Pre-gap length 0:00:02.00

Peak level 92.3 % Track quality 100.0 % Test CRC E43787BB Copy CRC E43787BB Track not present in AccurateRip database Copy OK

Track 2

Filename C:\Audio\Duke Pearson - Tender Feelin's (1959) [FLAC] {1998 Japan Blue Note RVG}\02 - I'm A Fool To Want You.wav

Pre-gap length 0:00:03.14

Peak level 99.8 % Track quality 100.0 % Test CRC 0A68738A Copy CRC 0A68738A Track not present in AccurateRip database Copy OK

Track 3

Filename C:\Audio\Duke Pearson - Tender Feelin's (1959) [FLAC] {1998 Japan Blue Note RVG}\03 - I Love You.wav

Pre-gap length 0:00:01.57

Peak level 96.7 % Track quality 100.0 % Test CRC CCAD109A Copy CRC CCAD109A Track not present in AccurateRip database Copy OK

Track 4

Filename C:\Audio\Duke Pearson - Tender Feelin's (1959) [FLAC] {1998 Japan Blue Note RVG}\04 - When Sunny Gets Blue.wav

Pre-gap length 0:00:03.09

Peak level 99.8 % Track quality 100.0 % Test CRC C69C3029 Copy CRC C69C3029 Track not present in AccurateRip database Copy OK

Track 5

Filename C:\Audio\Duke Pearson - Tender Feelin's (1959) [FLAC] {1998 Japan Blue Note RVG}\05 - The Golden Striker.wav

Pre-gap length 0:00:03.30

Peak level 99.8 % Track quality 100.0 % Test CRC CE303191 Copy CRC CE303191 Track not present in AccurateRip database Copy OK

Track 6

Filename C:\Audio\Duke Pearson - Tender Feelin's (1959) [FLAC] {1998 Japan Blue Note RVG}\06 - On Green Dolphin Street.wav

Pre-gap length 0:00:01.97

Peak level 99.8 % Track quality 100.0 % Test CRC 4E97A4B2 Copy CRC 4E97A4B2 Track not present in AccurateRip database Copy OK

Track 7

Filename C:\Audio\Duke Pearson - Tender Feelin's (1959) [FLAC] {1998 Japan Blue Note RVG}\07 - 3 A.M..wav

Pre-gap length 0:00:03.45

Peak level 97.4 % Track quality 100.0 % Test CRC 6FF9766B Copy CRC 6FF9766B Track not present in AccurateRip database Copy OK

None of the tracks are present in the AccurateRip database

No errors occurred

End of status report
 
AUDIOCHECKER v1.2 - by Dester - opdester@freemail.hu~~~~~~~~~~~~~~~~~

1 -===- E:\Up-Down\Duke Pearson - Tender Feelin's\01 - Bluebird Of Happiness.flac Extracted successfully Conclusion: This track looks like CDDA with probability 100%

2 -===- E:\Up-Down\Duke Pearson - Tender Feelin's\02 - I'm A Fool To Want You.flac Extracted successfully Conclusion: This track looks like CDDA with probability 100%

3 -===- E:\Up-Down\Duke Pearson - Tender Feelin's\03 - I Love You.flac Extracted successfully Conclusion: This track looks like CDDA with probability 100%

4 -===- E:\Up-Down\Duke Pearson - Tender Feelin's\04 - When Sunny Gets Blue.flac Extracted successfully Conclusion: This track looks like CDDA with probability 100%

5 -===- E:\Up-Down\Duke Pearson - Tender Feelin's\05 - The Golden Striker.flac Extracted successfully Conclusion: This track looks like CDDA with probability 100%

6 -===- E:\Up-Down\Duke Pearson - Tender Feelin's\06 - On Green Dolphin Street.flac Extracted successfully Conclusion: This track looks like CDDA with probability 99%

7 -===- E:\Up-Down\Duke Pearson - Tender Feelin's\07 - 3 A.M..flac Extracted successfully Conclusion: This track looks like CDDA with probability 100%


Трекер:  [ 28-Янв-2012 10:32 ]

  

Скачать .torrent

Размер .torrent файла 19 KB


Размер: 227 MB
Хэш (hash) релиза: d674d98f7f4f1390855dcdb1e826eb87d6c77744

Еще никто не оставлял запись к записи скачать торрент Duke Pearson - Tender Feelins {RVG Edition} - 1959, FLAC . Будь первым!

!Обратная связь