Скачать через торрент музыку Duke Jordan - Flight To Jordan - 2007, FLAC бесплатно без регистрации torrent

Если у вас наблюдаются проблемы со скриншотами, переходом по ссылками, скачиванием торрентов - проблемы в блокировщике рекламы AdBlock. #хорошегоДня!


Статистика раздачи
Размер:  290 MB   |    Зарегистрирован:  5 лет 8 месяцев   |    .torrent скачан:  44 раза   |   
Раздают:  1  
   
Загрузка...
 
Автор Сообщение

Umakiro

avatar Umakiro


Duke Jordan - Flight To Jordan

Жанр: Bop/Hard Bop
Год выпуска диска: 2007
Производитель диска: Blue Note
Аудио кодек: FLAC
Тип рипа: image+.cue
Битрейт аудио: lossless
Продолжительность: 48:01
Источник: e2k

Трэклист:
1. Flight to Jordan 5:32
2. Star Brite 7:49
3. Squawkin' 5:00
4. Deacon Joe 8:43
5. Split Quick 5:11
6. Si-Joya 6:46
7. Diamond Stud 5:04
8. I Should Care 3:49

Duke Jordan - Piano
Dizzy Reece - Trumpet
Art Taylor - Drums
Stanley Turrentine - Sax Tenor
Reggie Workman - Bass

Recorded on August 4, 1960 at the Van Gelder Studio
Remastered in 2007 Rudy Van Gelder
 
Exact Audio Copy V0.99 prebeta 4 from 23. January 2008

EAC extraction logfile from 26. February 2008, 17:13

Duke Jordan / Flight To Jordan

Used drive : ATAPI DVD A DH20A3H Adapter: 1 ID: 1

Read mode : SecureUtilize accurate stream : YesDefeat audio cache : YesMake use of C2 pointers : No

Read offset correction : 6Overread into Lead-In and Lead-Out : YesFill up missing offset samples with silence : YesDelete leading and trailing silent blocks : NoNull samples used in CRC calculations : YesUsed interface : Installed external ASPI interface

Used output format : User Defined EncoderSelected bitrate : 320 kBit/sQuality : HighAdd ID3 tag : NoCommand line compressor : C:\Program Files\FLAC\flac.exeAdditional command line options : -V -8 -T "artist=%a" -T "title=%t" -T "album=%g" -T "date=%y" -T "tracknumber=%n" -T "genre=%m" %s

TOC of the extracted CD

Track | Start | Length | Start sector | End sector --------------------------------------------------------- 1 | 0:00.00 | 5:31.64 | 0 | 24888 2 | 5:31.64 | 7:47.45 | 24889 | 59958 3 | 13:19.34 | 4:59.70 | 59959 | 82453 4 | 18:19.29 | 8:40.73 | 82454 | 121526 5 | 27:00.27 | 5:11.28 | 121527 | 144879 6 | 32:11.55 | 6:43.67 | 144880 | 175171 7 | 38:55.47 | 5:04.41 | 175172 | 198012 8 | 44:00.13 | 3:50.56 | 198013 | 215318

Range status and errors

Selected range

Filename D:\WinRar\Duke Jordan - Flight To Jordan (1960 RVG)[FLAC Full Scans]\Duke Jordan - Flight To Jordan.wav

Peak level 97.9 % Range quality 100.0 % Test CRC 413E272C Copy CRC 413E272C Copy OK

No errors occurred

AccurateRip summary

Track 1 cannot be verified as accurate (confidence 1) [CD399AC9], AccurateRip returned [3E57E391]Track 2 cannot be verified as accurate (confidence 1) [482A178C], AccurateRip returned [E5718D4C]Track 3 cannot be verified as accurate (confidence 1) [6D67C705], AccurateRip returned [BA2B56C5]Track 4 cannot be verified as accurate (confidence 1) [A0B70B0A], AccurateRip returned [0BE7126A]Track 5 cannot be verified as accurate (confidence 1) [D06E7CE7], AccurateRip returned [4A71509F]Track 6 cannot be verified as accurate (confidence 1) [97EEE96D], AccurateRip returned [DEDC6B5D]Track 7 cannot be verified as accurate (confidence 1) [3B644642], AccurateRip returned [1EB5A752]Track 8 cannot be verified as accurate (confidence 1) [5839E725], AccurateRip returned [83F72AFD]

No tracks could be verified as accurateYou may have a different pressing from the one(s) in the database

End of status report
 
AUDIOCHECKER v2.0 beta (build 457) - by Dester - opdester@freemail.hu-----------------------------------------------------------Начато: пятница, 20. 03. 2009. - 9:00.35Найдено файлов: 1

1 -===- E:\torrent\music\Duke Jordan - Flight To Jordan\Duke Jordan - Flight To Jordan.flac Извлечение успешно выполнено Заключение: этот трек - CDDA с вероятностью 100% Временный файл удалён.

Завершено: пятница, 20. 03. 2009. - 9:04.56 (Время операции: 0:04.21)-----------------------------------------------------------


Трекер:  [ 28-Янв-2012 10:32 ]

  

Скачать .torrent

Размер .torrent файла 12 KB


Размер: 290 MB
Хэш (hash) релиза: bffc6a1085f9871129566f2f6d43a1e29da5e886

Еще никто не оставлял запись к записи скачать торрент Duke Jordan - Flight To Jordan - 2007, FLAC . Будь первым!

!Обратная связь